<?xml version="1.0" standalone="no"?>
<!DOCTYPE svg PUBLIC "-//W3C//DTD SVG 1.1//EN" "http://www.w3.org/Graphics/SVG/1.1/DTD/svg11.dtd" >
<svg>
<metadata>
Created by FontForge 20120731 at Tue Jul  8 22:17:25 2014
 By World Wide Web Server
Copyright (c) 2011, Jonathan Pinhorn (pinhorn.typedesign@gmail.com), with Reserved Font Names "Karla" and "Karla Tamil"
</metadata>
<defs>
<font id="Karla-Italic" horiz-adv-x="508" >
  <font-face 
    font-family="Karla"
    font-weight="400"
    font-style="italic"
    font-stretch="normal"
    units-per-em="1000"
    panose-1="0 0 0 0 0 0 0 0 0 0"
    ascent="800"
    descent="-200"
    x-height="478"
    cap-height="629"
    bbox="-96 -246 851 879"
    underline-thickness="50"
    underline-position="-50"
    unicode-range="U+0020-2212"
  />
<missing-glyph horiz-adv-x="498" 
 />
    <glyph glyph-name=".notdef" horiz-adv-x="498" 
 />
    <glyph glyph-name=".null" horiz-adv-x="0" 
 />
    <glyph glyph-name="nonmarkingreturn" horiz-adv-x="498" 
 />
    <glyph glyph-name="space" unicode=" " horiz-adv-x="214" 
 />
    <glyph glyph-name="space" unicode="&#xa0;" horiz-adv-x="214" 
 />
    <glyph glyph-name="exclam" unicode="!" horiz-adv-x="250" 
d="M150 627h74l-50 -451h-58zM90.5 7.5q-13.5 16.5 -11 40t18.5 40t39 16.5t37.5 -16.5t12 -40t-19.5 -40t-40 -16.5t-36.5 16.5z" />
    <glyph glyph-name="quotedbl" unicode="&#x22;" horiz-adv-x="275" 
d="M163 681l-31 -220h-54l11 220h74zM314 681l-31 -220h-54l11 220h74z" />
    <glyph glyph-name="numbersign" unicode="#" horiz-adv-x="564" 
d="M357 170h-138l-26 -139h-66l26 139h-90l10 54h90l34 178h-91l10 53h91l26 138h67l-26 -138h138l26 138h66l-26 -138h92l-10 -53h-92l-34 -178h92l-10 -54h-92l-26 -139h-67zM230 224h138l34 178h-138z" />
    <glyph glyph-name="dollar" unicode="$" horiz-adv-x="569" 
d="M414 330q60 -23 91 -61.5t25 -103.5q-6 -68 -60 -116q-58 -53 -152 -59l-7 -81h-56l7 82q-83 8 -131 57q-52 53 -44 141h69q-5 -60 26 -90t87 -36l23 236l-28 11q-74 27 -106 62q-35 37 -29 103.5t55.5 111t139.5 51.5l7 75h56l-7 -76q77 -7 115.5 -49.5t42.5 -111.5h-70
q-8 78 -95 92l-20 -215zM451 167q6 74 -73 103l-32 12l-21 -220q58 5 89.5 36t36.5 69zM237 536q-29 -27 -32 -63.5t13.5 -57t54.5 -34.5l26 -10l18 197q-51 -5 -80 -32z" />
    <glyph glyph-name="percent" unicode="%" horiz-adv-x="653" 
d="M336.5 494q-6.5 -69 -44.5 -105t-84 -36q-49 0 -77 36q-30 38 -23.5 108t44 106.5t84.5 36.5t77 -38.5t23.5 -107.5zM269.5 565q-14.5 22 -40.5 22t-44 -22t-23 -69t9.5 -68t40.5 -21t44 21t23 68t-9.5 69zM545 629h74l-440 -629h-73zM515 276q49 0 77 -36
q31 -39 25 -108q-6 -68 -45 -107q-36 -36 -85 -36q-48 0 -76 36q-30 38 -24 107q6 68 44 108q36 36 84 36zM510 223q-26 0 -44.5 -22t-23 -69t10 -68t40.5 -21t44 21t22 68q5 47 -9 69t-40 22z" />
    <glyph glyph-name="ampersand" unicode="&#x26;" horiz-adv-x="824" 
d="M692 350q-55 -140 -124 -222l35 -37q16 -17 29.5 -25t35.5 -8t41 18.5t26 63.5h67q-11 -72 -45 -111.5t-91 -39.5q-35 0 -63.5 16t-60.5 51l-21 22q-97 -89 -213 -89q-94 0 -155 53q-58 53 -50.5 126.5t53.5 111t131 52.5l-12 13q-64 68 -56 147q6 64 57 105
q53 42 133 42q73 0 117 -43q42 -40 36.5 -100t-44.5 -103t-122 -81l130 -139q65 79 119 207zM181 177q-5 -49 29 -83.5t106 -34.5q88 0 162 66l-151 164q-139 -19 -146 -112zM476 452q7 17 9.5 44.5t-20 51.5t-67 24t-72 -27.5t-30.5 -59.5q-6 -59 40 -108l23 -25
q95 46 117 100z" />
    <glyph glyph-name="quotesingle" unicode="'" horiz-adv-x="122" 
d="M162 677l-31 -220h-54l11 220h74z" />
    <glyph glyph-name="parenleft" unicode="(" horiz-adv-x="320" 
d="M371 687q-172 -176 -192 -380q-18 -206 120 -380l-55 -40q-80 89 -115 197t-24 223.5t66 223t152 197.5z" />
    <glyph glyph-name="parenright" unicode=")" horiz-adv-x="320" 
d="M145 728q161 -181 138 -421q-11 -115 -66 -223t-151 -197l-48 40q172 176 192 380q18 206 -120 380z" />
    <glyph glyph-name="asterisk" unicode="*" horiz-adv-x="371" 
d="M204 516l-101 40l27 54l90 -54l2 128h56l-21 -128l101 54l16 -54l-108 -40l72 -89l-43 -39l-62 104l-82 -104l-37 39z" />
    <glyph glyph-name="plus" unicode="+" horiz-adv-x="474" 
d="M319 491l-20 -212h185l-6 -67h-186l-19 -212h-71l19 212h-185l6 67h186l19 212h72z" />
    <glyph glyph-name="comma" unicode="," horiz-adv-x="189" 
d="M61 10q-13 13 -11 35t18 37t41.5 15t40.5 -22.5t11.5 -56.5t-27 -69.5t-65.5 -57.5l-50 29q61 32 75 75q-20 2 -33 15z" />
    <glyph glyph-name="hyphen" unicode="-" horiz-adv-x="314" 
d="M65 325h245l-7 -68h-245z" />
    <glyph glyph-name="period" unicode="." horiz-adv-x="161" 
d="M44.5 7.5q-13.5 16.5 -11.5 40t18 40t39.5 16.5t37 -16.5t11.5 -40t-18.5 -40t-39.5 -16.5t-36.5 16.5z" />
    <glyph glyph-name="slash" unicode="/" horiz-adv-x="389" 
d="M346 731h72l-303 -804h-71z" />
    <glyph glyph-name="zero" unicode="0" horiz-adv-x="535" 
d="M344 640q103 0 153 -82q52 -83 38 -243q-24 -241 -161 -305q-43 -21 -93 -21q-102 0 -152 81q-53 86 -37 245q14 158 83 243q66 82 169 82zM441.5 502.5q-31.5 65.5 -104.5 65.5t-116.5 -65.5t-55.5 -188t20 -188t104.5 -65.5t116 65.5t55.5 188t-19.5 188z" />
    <glyph glyph-name="one" unicode="1" horiz-adv-x="298" 
d="M266 631l-59 -631h-70l50 537q-44 -30 -96 -35l7 78q63 9 111 51h57z" />
    <glyph glyph-name="two" unicode="2" horiz-adv-x="522" 
d="M135 73h328l-6 -73h-399l8 93q11 111 92 163q25 17 56 30l116 50q90 38 98 125q5 48 -22 78.5t-80.5 30.5t-89.5 -25t-46 -75h-78q12 82 70.5 126t148.5 44q84 0 132 -52q50 -53 42 -129t-47.5 -121t-104.5 -72l-119 -51q-45 -20 -68.5 -45.5t-27.5 -66.5z" />
    <glyph glyph-name="three" unicode="3" horiz-adv-x="532" 
d="M331 640q40 0 74.5 -13t58.5 -35q51 -48 45 -124q-11 -101 -113 -139q52 -17 81.5 -56t25 -90t-22.5 -85t-47 -58q-62 -51 -157 -51q-91 0 -148 51q-63 57 -53 153h74q-5 -65 33.5 -98.5t101 -33.5t100 33.5t42.5 83t-25.5 81t-105.5 31.5h-65l7 63h44q65 0 105 28.5
t45 76.5t-23 79t-78.5 31t-86 -19.5t-51.5 -72.5h-74q17 83 77 126q53 38 136 38z" />
    <glyph glyph-name="four" unicode="4" horiz-adv-x="503" 
d="M445 638l-39 -418h98l-7 -68h-98l-14 -152h-69l13 152h-292l6 61l337 425h65zM128 213h209l28 300z" />
    <glyph glyph-name="five" unicode="5" 
d="M213 376q49 9 90 9q93 0 141.5 -45.5t40.5 -135.5q-10 -96 -69 -154q-64 -61 -155 -61q-84 0 -133 47q-53 51 -45 139h71q-5 -57 28 -85.5t86 -28.5q59 0 98 41q39 39 44 100q11 121 -128 121h-152l54 306h314l-7 -72h-245z" />
    <glyph glyph-name="six" unicode="6" horiz-adv-x="516" 
d="M439 470q-7 98 -91 98q-78 0 -128 -74q-56 -82 -66 -246q-2 -23 -1 -44q22 135 119 166q29 9 63 9t65.5 -14.5t53.5 -40.5q47 -57 39 -142q-10 -87 -67.5 -140.5t-144.5 -53.5q-100 0 -155 90q-52 88 -40 225q14 156 86 247q71 90 181 90q77 0 120 -47t42 -123h-76z
M181.5 182q-4.5 -55 26 -88t81.5 -33t88 33t42 91t-25.5 91t-81 33t-88.5 -36t-42.5 -91z" />
    <glyph glyph-name="seven" unicode="7" horiz-adv-x="423" 
d="M466 629l-7 -73l-311 -556h-96l324 553h-302l7 76h385z" />
    <glyph glyph-name="eight" unicode="8" horiz-adv-x="553" 
d="M342 640q48 0 84.5 -13.5t61.5 -36.5q54 -50 46 -125q-4 -53 -40 -93q-37 -41 -95 -51l15 -6q60 -26 89.5 -61.5t22.5 -103.5t-71 -114.5t-173 -46.5q-98 0 -158 51q-59 51 -51 128q5 62 45 101t100 49q-45 24 -65 50q-38 50 -33 105q6 75 66 120q62 47 156 47zM283 289
q-56 -6 -95 -39q-37 -32 -41 -75q-6 -53 37 -85q39 -29 109 -29t113 26t46.5 63t-16.5 59.5t-55 37.5zM264 381l63 -28q54 2 91 31t42.5 77t-29 77.5t-94.5 29.5q-57 0 -97 -28q-41 -30 -45.5 -77.5t69.5 -81.5z" />
    <glyph glyph-name="nine" unicode="9" horiz-adv-x="523" 
d="M322 640q46 0 85.5 -22t65.5 -63q57 -89 43 -229q-25 -245 -153 -314q-44 -23 -93.5 -23t-84 14.5t-57.5 40.5q-49 57 -41 142h75q-5 -57 23 -91t75 -34t77 19.5t52 55.5q42 70 55 201q4 38 2 74q-17 -81 -64.5 -121t-111.5 -40q-77 0 -123 55.5t-38 141.5q8 87 66.5 140
t146.5 53zM393.5 534q-30.5 33 -81 33t-87.5 -33t-42.5 -91t25 -91t82.5 -33q50 0 87 35q38 37 42.5 92t-26 88z" />
    <glyph glyph-name="colon" unicode=":" horiz-adv-x="208" 
d="M70.5 39.5q-13.5 16.5 -11.5 40t18 40t39.5 16.5t37 -16.5t11.5 -40t-18.5 -40t-39.5 -16.5t-36.5 16.5zM99.5 345.5q-13.5 16.5 -11.5 40t18 40t39.5 16.5t37 -16.5t11.5 -40t-18.5 -40t-39.5 -16.5t-36.5 16.5z" />
    <glyph glyph-name="semicolon" unicode=";" horiz-adv-x="236" 
d="M85 10q-13 13 -11 35t18 37t41.5 15t40.5 -22.5t11.5 -56.5t-27 -69.5t-65.5 -57.5l-50 29q61 32 75 75q-20 2 -33 15zM120.5 345.5q-13.5 16.5 -11.5 40t18 40t39.5 16.5t37 -16.5t11.5 -40t-18.5 -40t-39.5 -16.5t-36.5 16.5z" />
    <glyph glyph-name="less" unicode="&#x3c;" horiz-adv-x="409" 
d="M415 512l-279 -207l240 -204l-52 -61l-263 231l6 69l307 232z" />
    <glyph glyph-name="equal" unicode="=" horiz-adv-x="439" 
d="M385 185l-6 -68h-297l6 68h297zM403 377l-6 -69h-297l6 69h297z" />
    <glyph glyph-name="greater" unicode="&#x3e;" horiz-adv-x="409" 
d="M142 572l262 -232l-6 -69l-306 -231l-41 61l277 204l-238 207z" />
    <glyph glyph-name="question" unicode="?" horiz-adv-x="449" 
d="M276 568q-105 0 -128 -92h-76q13 74 66 119t144 45q85 0 132 -48q44 -47 38 -117q-5 -52 -32 -87t-82 -66q-51 -30 -64 -46q-22 -29 -26 -76l-4 -39h-70l4 45q6 65 28 97q24 33 77 63q48 28 64 46q24 27 28 66t-22 64.5t-77 25.5zM204 102q23 0 37 -17t12 -40.5
t-19.5 -39.5t-40.5 -16t-35.5 16t-10.5 39.5t18 40.5t39 17z" />
    <glyph glyph-name="at" unicode="@" horiz-adv-x="846" 
d="M552 289q5 43 -6.5 63.5t-38.5 20.5t-51.5 -12t-45.5 -34q-50 -51 -56 -125q-6 -53 16 -82t59 -29t62.5 23.5t51.5 68.5zM364.5 609q76.5 31 158.5 31t143 -27t102 -73.5t60 -109.5t12.5 -129.5t-27.5 -116t-51 -84.5q-63 -72 -141 -72q-38 0 -59.5 18t-23.5 52l-2 16
q-20 -38 -49 -62t-65.5 -24t-61 12.5t-42.5 35.5q-39 50 -31 125q10 99 77 167q64 67 145 67q54 0 82 -36t21 -109l-15 -152q-4 -51 31 -51q41 0 82 53q48 60 57 156q10 119 -55 195q-66 78 -191 78q-143 0 -247 -103q-98 -99 -112 -247q-16 -151 71 -243.5t254 -92.5
l-7 -64q-97 0 -173.5 30.5t-127.5 84.5t-74.5 128.5t-15.5 163.5t45 165t95.5 131.5t135 86.5z" />
    <glyph glyph-name="A" unicode="A" horiz-adv-x="517" 
d="M277 629h87l130 -629h-74l-33 160h-225l-64 -160h-75zM186 222h188l-64 311z" />
    <glyph glyph-name="B" unicode="B" horiz-adv-x="560" 
d="M150 629h212q89 0 135 -49q41 -44 35 -107q-12 -129 -122 -157q52 -10 80 -50q45 -66 8 -157q-26 -65 -101 -94q-39 -15 -94 -15h-212zM308 69q119 0 130 106q5 48 -23 76.5t-87 28.5h-140l-20 -211h140zM194 348h139q52 0 85.5 28.5t38.5 78.5t-22.5 78t-81.5 28h-139z
" />
    <glyph glyph-name="C" unicode="C" horiz-adv-x="552" 
d="M502.5 589.5q50.5 -50.5 64.5 -131.5l-79 -17q-12 59 -47.5 93.5t-86.5 34.5q-70 0 -122 -63q-54 -68 -66 -188q-16 -182 70 -239q29 -19 70 -19q68 0 111 39.5t49 104.5h76q-10 -100 -76 -158q-65 -57 -167 -57q-111 0 -168 91q-55 88 -41 238q14 153 92 240
q74 82 172 82t148.5 -50.5z" />
    <glyph glyph-name="D" unicode="D" horiz-adv-x="595" 
d="M316 629q128 0 197 -86t55 -228q-14 -143 -98 -229q-85 -86 -214 -86h-166l59 629h167zM167 69h96q93 0 157 70q62 68 72 176t-39 175q-51 69 -144 69h-96z" />
    <glyph glyph-name="E" unicode="E" horiz-adv-x="506" 
d="M149 629h349l-8 -68h-277l-20 -211h261l-6 -67h-261l-20 -214h278l-7 -69h-348z" />
    <glyph glyph-name="F" unicode="F" horiz-adv-x="472" 
d="M150 629h344l-7 -68h-273l-20 -209h254l-6 -68h-254l-26 -284h-71z" />
    <glyph glyph-name="G" unicode="G" horiz-adv-x="580" 
d="M465 109q-48 -120 -163 -120q-104 0 -164 85q-63 90 -49 233q13 155 103 247q81 85 194 85q135 0 190 -126l-71 -26q-52 81 -129 81q-78 0 -138 -70q-62 -71 -74 -191q-10 -108 30 -177t120 -69q61 0 105.5 45t55.5 139l1 6v2l-142 6l5 52h211l-28 -311h-58z" />
    <glyph glyph-name="H" unicode="H" horiz-adv-x="602" 
d="M221 629l-27 -277h278l27 277h72l-60 -629h-71l26 284h-278l-26 -284h-71l59 629h71z" />
    <glyph glyph-name="I" unicode="I" horiz-adv-x="252" 
d="M150 629h71l-59 -629h-71z" />
    <glyph glyph-name="J" unicode="J" horiz-adv-x="364" 
d="M17 113q60 -48 115 -48t77.5 30t28.5 87l42 447h71l-42 -447q-11 -103 -57 -148t-115 -45q-38 0 -68 12t-59 30z" />
    <glyph glyph-name="K" unicode="K" horiz-adv-x="548" 
d="M222 629l-27 -291l280 291h98l-274 -282l230 -347h-92l-191 291l-62 -63l-21 -228h-72l59 629h72z" />
    <glyph glyph-name="L" unicode="L" horiz-adv-x="421" 
d="M168 69h252l-6 -69h-323l59 629h71z" />
    <glyph glyph-name="M" unicode="M" horiz-adv-x="763" 
d="M252 629l150 -426l230 426h100l-60 -629h-71l48 516l-235 -437h-48l-155 446l-49 -525h-71l59 629h102z" />
    <glyph glyph-name="N" unicode="N" horiz-adv-x="616" 
d="M233 629l232 -504l49 504h71l-59 -629h-80l-237 513l-48 -513h-72l59 629h85z" />
    <glyph glyph-name="O" unicode="O" horiz-adv-x="581" 
d="M366 640q110 0 168 -82q61 -84 47 -244q-15 -160 -94 -245q-74 -80 -183 -80q-111 0 -167 81q-61 86 -46 244q13 158 92 246q73 80 183 80zM478.5 503q-40.5 66 -120 66t-131 -66t-63.5 -190t28 -188t119 -64t131.5 64t64.5 188t-28.5 190z" />
    <glyph glyph-name="P" unicode="P" horiz-adv-x="499" 
d="M469 576.5q44 -52.5 35.5 -141.5t-62.5 -140.5t-148 -51.5h-111l-23 -243h-71l59 629h183q94 0 138 -52.5zM301 311q58 0 91.5 33t38.5 90.5t-22 92t-85 34.5h-112l-23 -250h112z" />
    <glyph glyph-name="Q" unicode="Q" horiz-adv-x="587" 
d="M456 -87q38 0 90 25l-8 -86q-38 -19 -78 -19q-76 0 -123 89l-36 67q-108 2 -165 83q-60 85 -44 242q13 158 92 246q73 80 183 80t168 -82q61 -84 47 -244q-14 -138 -70.5 -215.5t-137.5 -100.5l24 -44q24 -39 58 -41zM479.5 503q-40.5 66 -120 66t-131 -66t-63.5 -190
t28 -188t119 -64t131.5 64t64.5 188t-28.5 190z" />
    <glyph glyph-name="R" unicode="R" horiz-adv-x="552" 
d="M361 261l138 -261h-91l-123 257h-99l-24 -257h-71l59 629h197q96 0 143 -52q44 -50 37 -128q-16 -162 -166 -188zM311 312q64 0 100.5 34.5t41.5 91t-24 90t-89 33.5h-126l-23 -249h120z" />
    <glyph glyph-name="S" unicode="S" horiz-adv-x="544" 
d="M337 640q87 0 131 -44.5t45 -119.5h-70q-2 44 -30.5 68t-84 24t-88.5 -27.5t-36.5 -66t13.5 -58.5t58 -35l113 -45q59 -23 90.5 -63t25.5 -106q-6 -77 -66 -127q-62 -51 -162 -51q-88 0 -141 51q-56 54 -50 149h69q-6 -63 33 -97q35 -31 96 -31t100 30.5t43 72
t-15.5 65.5t-61.5 40l-96 41q-68 26 -100.5 62t-26.5 102q13 116 126 154q38 12 85 12z" />
    <glyph glyph-name="T" unicode="T" horiz-adv-x="451" 
d="M65 629h440l-7 -68h-185l-52 -561h-71l52 561h-184z" />
    <glyph glyph-name="U" unicode="U" horiz-adv-x="589" 
d="M220 629l-39 -402q-8 -88 27.5 -127t101 -39t108.5 39t51 127l39 402h71l-39 -402q-11 -118 -75 -178t-162.5 -60t-151 60t-41.5 178l39 402h71z" />
    <glyph glyph-name="V" unicode="V" horiz-adv-x="507" 
d="M150 629l112 -531l213 531h75l-260 -629h-74l-140 629h74z" />
    <glyph glyph-name="W" unicode="W" horiz-adv-x="805" 
d="M151 629l88 -522l183 457h48l94 -459l209 524h78l-259 -629h-75l-85 402l-166 -402h-74l-120 629h79z" />
    <glyph glyph-name="X" unicode="X" horiz-adv-x="578" 
d="M534 0h-89l-140 251l-175 -251h-87l229 312l-170 317h85l138 -257l174 257h85l-226 -316z" />
    <glyph glyph-name="Y" unicode="Y" horiz-adv-x="494" 
d="M153 629l125 -289l183 289h83l-238 -371l-24 -258h-72l24 258l-166 371h85z" />
    <glyph glyph-name="Z" unicode="Z" horiz-adv-x="533" 
d="M72 71l373 483l-327 3l7 72h416l-7 -71l-373 -483l327 -3l-7 -72h-415z" />
    <glyph glyph-name="bracketleft" unicode="[" horiz-adv-x="285" 
d="M159 731h178l-6 -70h-107l-66 -693h107l-6 -70h-178z" />
    <glyph glyph-name="backslash" unicode="\" horiz-adv-x="389" 
d="M95 731h71l303 -804h-72z" />
    <glyph glyph-name="bracketright" unicode="]" horiz-adv-x="316" 
d="M198 -102h-178l6 70h107l66 693h-107l6 70h178z" />
    <glyph glyph-name="asciicircum" unicode="^" horiz-adv-x="403" 
d="M41 245l191 341h55l126 -341h-79l-84 247l-129 -247h-80z" />
    <glyph glyph-name="underscore" unicode="_" horiz-adv-x="653" 
d="M44 -56h554l-6 -68h-554z" />
    <glyph glyph-name="grave" unicode="`" horiz-adv-x="283" 
d="M132 860l199 -133l-25 -50l-210 113z" />
    <glyph glyph-name="a" unicode="a" horiz-adv-x="504" 
d="M386 310q6 65 -15.5 93t-67.5 28t-76.5 -20t-34.5 -65h-79q8 78 61 111t130 33q121 0 147 -100q9 -34 5 -82l-29 -308h-60v80q-49 -91 -153 -91q-64 0 -103 39q-36 36 -36 83t14.5 76t38.5 49q50 39 121 39t131 -26zM375 199q-62 20 -111.5 20t-81 -22.5t-31.5 -73.5
q0 -32 18.5 -52.5t65.5 -20.5q51 0 91 37q44 40 48 103z" />
    <glyph glyph-name="b" unicode="b" horiz-adv-x="526" 
d="M199 406q51 84 140 84q70 0 117 -58q49 -59 49 -156q0 -106 -54 -190q-27 -42 -68 -69.5t-90 -27.5q-99 0 -129 95l-24 -84h-49l64 681h71zM180 204q-6 -66 28 -108q30 -37 73 -37t70.5 20.5t45.5 52.5q35 61 35 135.5t-32 113.5t-81 39t-87 -38q-40 -42 -46 -111z" />
    <glyph glyph-name="c" unicode="c" horiz-adv-x="463" 
d="M296 490q38 0 66 -12.5t48 -33.5q39 -42 45 -106l-72 -7q-8 42 -31.5 65.5t-54.5 23.5t-54.5 -11.5t-42.5 -34.5q-43 -50 -50 -134q-8 -82 22.5 -131.5t82 -49.5t79.5 26.5t32 75.5h73q-6 -75 -59 -123q-52 -49 -131 -49q-80 0 -130 67q-52 71 -42 184q12 115 77 185
q61 65 142 65z" />
    <glyph glyph-name="d" unicode="d" horiz-adv-x="535" 
d="M383 80q-51 -91 -139 -91q-75 0 -122 59q-48 61 -48 158q0 106 54 188q62 96 154.5 96t127.5 -82l26 273h71l-64 -681h-58zM285 420q-30 0 -57.5 -20.5t-45.5 -51.5q-34 -60 -34 -134t31.5 -114.5t79.5 -40.5q46 0 83 37q41 41 49 110l7 70q6 70 -27 109q-29 35 -86 35z
" />
    <glyph glyph-name="e" unicode="e" horiz-adv-x="463" 
d="M256 53q88 0 110 87h73q-17 -72 -68 -111.5t-121 -39.5q-86 0 -133 67q-50 70 -38 182q12 116 73 184q60 68 145 68q95 0 134 -81q36 -73 12 -187h-295q-10 -117 56 -156q21 -13 52 -13zM342 415q-20 12 -49 12t-52 -11.5t-41 -31.5q-35 -40 -45 -102h230q11 100 -43 133
z" />
    <glyph glyph-name="f" unicode="f" horiz-adv-x="309" 
d="M89 478h70l7 73q7 72 45.5 105t83.5 33t81 -13l-19 -62q-28 13 -45.5 13t-28.5 -3.5t-21 -11.5q-21 -20 -25 -62l-7 -72h89l-5 -54h-89l-40 -424h-70l39 424h-70z" />
    <glyph glyph-name="g" unicode="g" 
d="M413 454q11 53 46 85t88 32l-15 -78q-79 0 -89 -73q28 -45 23 -94t-21.5 -81.5t-42.5 -56.5q-54 -48 -129 -48q-51 0 -88 23q-19 -4 -34.5 -18.5t-18.5 -38.5q-5 -54 75 -54h167q60 0 93 -28.5t28 -79.5q-6 -75 -79 -131q-76 -59 -190 -59q-97 0 -154 44q-56 44 -50 109
q3 43 29 70t65 38q-25 14 -37 36.5t-9 53t26.5 54t55.5 31.5q-44 50 -36 126q8 78 62 126t123.5 48t111.5 -36zM92 -90q-3 -38 32 -65.5t107 -27.5q79 0 135 37q52 35 58 85q2 23 -11.5 39.5t-43.5 16.5h-175q-46 -2 -71.5 -24.5t-30.5 -60.5zM376 400.5
q-25 32.5 -74.5 32.5t-80 -32.5t-35.5 -84.5t20 -85.5t73.5 -33.5t80 34t36.5 85.5t-20 84z" />
    <glyph glyph-name="h" unicode="h" horiz-adv-x="544" 
d="M198 390q54 100 153 100q77 0 114.5 -56t27.5 -153l-26 -281h-70l26 281q7 69 -19 104t-81 35t-93.5 -51.5t-46.5 -142.5l-21 -226h-71l64 681h71z" />
    <glyph glyph-name="i" unicode="i" horiz-adv-x="269" 
d="M140 479h71l-45 -479h-71zM153.5 604.5q-10.5 13.5 -8.5 36t15 36t35 13.5t33.5 -13.5t9.5 -36t-16 -36t-36 -13.5t-32.5 13.5z" />
    <glyph glyph-name="j" unicode="j" horiz-adv-x="283" 
d="M167 604.5q-11 13.5 -9 36t15.5 36t35.5 13.5t33.5 -13.5t9.5 -36t-16 -36t-36 -13.5t-33 13.5zM-86 -140q52 -37 94.5 -37t65 26.5t28.5 83.5l52 547h71l-52 -547q-9 -96 -50.5 -137.5t-102.5 -41.5q-56 0 -116 37z" />
    <glyph glyph-name="k" unicode="k" 
d="M243 253l-62 -52l-19 -201h-71l64 681h71l-37 -395l226 192h99l-215 -179l180 -299h-88z" />
    <glyph glyph-name="l" unicode="l" horiz-adv-x="252" 
d="M155 681h71l-64 -681h-71z" />
    <glyph glyph-name="m" unicode="m" horiz-adv-x="841" 
d="M195 385q54 105 155 105q56 0 91 -30.5t47 -84.5q51 115 161 115q77 0 114.5 -56t27.5 -153l-26 -281h-70l26 281q7 69 -19 104t-81 35t-90 -50t-43 -138h-1l-21 -232h-70l26 281q7 69 -19 104t-81 35t-93.5 -51.5t-46.5 -142.5l-21 -226h-71l45 478h61z" />
    <glyph glyph-name="n" unicode="n" horiz-adv-x="543" 
d="M195 385q54 105 155 105q77 0 114.5 -56t27.5 -153l-26 -281h-70l26 281q7 69 -19 104t-81 35t-93.5 -51.5t-46.5 -142.5l-21 -226h-71l45 478h61z" />
    <glyph glyph-name="o" unicode="o" horiz-adv-x="491" 
d="M304 490q43 0 78.5 -16t59.5 -48q51 -68 39 -187q-12 -120 -75 -187q-60 -63 -150 -63t-138 63q-51 67 -39 187t75 187q59 64 150 64zM299 422q-63 0 -101 -48.5t-46 -134t18.5 -134t89.5 -48.5t102 48.5t47 134t-19.5 134t-90.5 48.5z" />
    <glyph glyph-name="p" unicode="p" horiz-adv-x="535" 
d="M195 405q53 85 140 85q78 0 127 -66q51 -71 41 -184q-12 -114 -77 -184q-61 -67 -143 -67t-116 69l-28 -293h-71l68 713h58zM180 194q-6 -62 26 -100q29 -35 77 -35q53 0 93 46q44 49 53 134.5t-23.5 133t-86.5 47.5q-50 0 -86 -36q-39 -39 -45 -106h-1l-8 -84h1z" />
    <glyph glyph-name="q" unicode="q" horiz-adv-x="526" 
d="M383 77q-44 -88 -133 -88q-80 0 -129 67q-53 71 -41 184q12 114 76 184q61 66 139 66q44 0 76.5 -23t48.5 -68l23 79h49l-53 -559q-6 -49 3.5 -65.5t21.5 -24t30 -14.5l-28 -61q-61 18 -83 58t-14 112zM296 420q-24 0 -48.5 -12t-43.5 -36q-43 -51 -51 -132
q-7 -83 27 -135q32 -46 85 -46q49 0 84 35q39 38 45 100l10 99q0 60 -32 95q-28 32 -76 32z" />
    <glyph glyph-name="r" unicode="r" horiz-adv-x="343" 
d="M359 401q-28 10 -54 10q-57 0 -86 -52.5t-38 -142.5h-22q10 108 38 172l-36 -388h-71l45 479h71l-9 -91q43 99 124 99q26 0 49 -9z" />
    <glyph glyph-name="s" unicode="s" horiz-adv-x="473" 
d="M161 455q49 35 126 35t117 -36t37 -91h-69q-3 65 -94 65q-44 0 -69.5 -22t-28 -47.5t14 -43t54.5 -30.5l83 -32q54 -19 80.5 -48.5t21.5 -76.5q-6 -57 -56 -96q-54 -43 -138.5 -43t-128.5 42.5t-40 109.5h68q-2 -45 27 -67.5t76.5 -22.5t79 22t34.5 52.5t-13.5 46.5
t-55.5 28l-81 31q-109 36 -100 130q6 59 55 94z" />
    <glyph glyph-name="t" unicode="t" horiz-adv-x="338" 
d="M317 14q-52 -25 -100 -25t-80 33t-25 102l27 294h-70l7 60h68l13 133h71l-13 -133h135l-6 -60h-135l-27 -293q-5 -37 9.5 -55t45.5 -18t75 18z" />
    <glyph glyph-name="u" unicode="u" horiz-adv-x="545" 
d="M400 95q-53 -104 -153 -104q-73 0 -113 45t-32 139l29 304h71l-28 -298q-12 -121 90 -121q60 0 102 52q40 51 48 134l22 233h71l-45 -479h-71z" />
    <glyph glyph-name="v" unicode="v" horiz-adv-x="453" 
d="M141 478l93 -395l167 395h80l-216 -478h-78l-126 478h80z" />
    <glyph glyph-name="w" unicode="w" horiz-adv-x="652" 
d="M135 478l69 -380l135 357h60l68 -362l141 385h71l-186 -478h-69l-68 335l-128 -335h-69l-98 478h74z" />
    <glyph glyph-name="x" unicode="x" horiz-adv-x="461" 
d="M436 0h-86l-106 181l-134 -181h-87l186 239l-141 240h87l106 -180l135 180h86l-187 -240z" />
    <glyph glyph-name="y" unicode="y" horiz-adv-x="436" 
d="M-8 -139q40 -38 88 -38q65 0 108 128l18 49l-131 478h79l94 -380l138 380h72l-215 -573q-28 -73 -65.5 -112t-89.5 -39t-103 35z" />
    <glyph glyph-name="z" unicode="z" horiz-adv-x="427" 
d="M53 64l286 350h-253l7 64h333l-7 -64l-282 -350h249l-5 -64h-333z" />
    <glyph glyph-name="braceleft" unicode="{" horiz-adv-x="314" 
d="M293 -138q-99 0 -142 66q-38 58 -27 168l8 92q9 79 -24 79h-15l7 76h15q17 0 26 17.5t14 61.5l8 91q17 168 123 217q38 18 91 18l-6 -69q-66 0 -98 -42.5t-40 -124.5l-8 -92q-9 -86 -58 -113l-1 -4q45 -25 36 -113l-8 -93q-8 -81 15.5 -123.5t90.5 -42.5z" />
    <glyph glyph-name="bar" unicode="|" horiz-adv-x="252" 
d="M161 750h71l-82 -872h-71z" />
    <glyph glyph-name="braceright" unicode="}" horiz-adv-x="319" 
d="M79 748q187 0 169 -234l-8 -92q-4 -43 1.5 -61t22.5 -18h15l-7 -76h-15q-17 0 -26.5 -17.5t-13.5 -61.5l-8 -91q-17 -169 -123 -217q-39 -18 -91 -18l6 69q66 0 98.5 42.5t39.5 124.5l8 92q9 86 58 113l1 4q-44 24 -36 113l8 93q8 81 -15.5 123.5t-90.5 42.5z" />
    <glyph glyph-name="asciitilde" unicode="~" horiz-adv-x="463" 
d="M168 282q-34 0 -60 -59l-38 23q41 111 107 111q30 0 76.5 -22t63 -27.5t29.5 -5.5q36 0 64 57l36 -27q-41 -106 -111 -106q-21 0 -71.5 22t-66.5 28t-29 6z" />
    <glyph glyph-name="sterling" unicode="&#xa3;" 
d="M24 69h25q67 0 74 90l10 108h-81l5 56h82l10 109q10 99 57 153.5t129 54.5q63 0 100 -38t40 -112h-69q-4 39 -25 58.5t-59.5 19.5t-66.5 -32t-35 -104l-11 -109h164l-5 -56h-164l-10 -104q-8 -70 -43 -94h166q44 0 66 20.5t32 64.5h75q-13 -77 -52 -113q-44 -41 -128 -41
h-292z" />
    <glyph glyph-name="dieresis" unicode="&#xa8;" horiz-adv-x="291" 
d="M111.5 793.5q-11.5 14.5 -9.5 35.5t16.5 35.5t35 14.5t33 -14.5t10.5 -35.5t-17.5 -35.5t-36 -14.5t-32 14.5zM262.5 793.5q-11.5 14.5 -9.5 35.5t16.5 35.5t35 14.5t33 -14.5t10.5 -35.5t-17.5 -35.5t-36 -14.5t-32 14.5z" />
    <glyph glyph-name="acute" unicode="&#xb4;" horiz-adv-x="283" 
d="M336 790l-231 -113l-16 50l224 133z" />
    <glyph glyph-name="Agrave" unicode="&#xc0;" horiz-adv-x="517" 
d="M277 629h87l130 -629h-74l-33 160h-225l-64 -160h-75zM186 222h188l-64 311zM252 860l199 -133l-25 -50l-210 113z" />
    <glyph glyph-name="Aacute" unicode="&#xc1;" horiz-adv-x="517" 
d="M277 629h87l130 -629h-74l-33 160h-225l-64 -160h-75zM186 222h188l-64 311zM456 790l-231 -113l-16 50l224 133z" />
    <glyph glyph-name="Acircumflex" unicode="&#xc2;" horiz-adv-x="517" 
d="M277 629h87l130 -629h-74l-33 160h-225l-64 -160h-75zM186 222h188l-64 311zM489 716l-48 -39l-107 108l-127 -108l-41 39l176 156z" />
    <glyph glyph-name="Atilde" unicode="&#xc3;" horiz-adv-x="517" 
d="M277 629h87l130 -629h-74l-33 160h-225l-64 -160h-75zM186 222h188l-64 311zM271 770q-30 0 -56 -51l-27 19q32 104 90 104q19 0 47.5 -17t37.5 -22t15 -8q10 -5 21 -5q29 0 52 52l29 -23q-14 -48 -38.5 -74t-43.5 -26t-33 6t-40 21q-39 24 -54 24z" />
    <glyph glyph-name="Adieresis" unicode="&#xc4;" horiz-adv-x="517" 
d="M277 629h87l130 -629h-74l-33 160h-225l-64 -160h-75zM186 222h188l-64 311zM239.5 749.5q-11.5 14.5 -9.5 35.5t16.5 35.5t35 14.5t33 -14.5t10.5 -35.5t-17.5 -35.5t-36 -14.5t-32 14.5zM390.5 749.5q-11.5 14.5 -9.5 35.5t16.5 35.5t35 14.5t33 -14.5t10.5 -35.5
t-17.5 -35.5t-36 -14.5t-32 14.5z" />
    <glyph glyph-name="Egrave" unicode="&#xc8;" 
d="M149 629h349l-8 -68h-277l-20 -211h261l-6 -67h-261l-20 -214h278l-7 -69h-348zM255 860l199 -133l-25 -50l-210 113z" />
    <glyph glyph-name="Eacute" unicode="&#xc9;" 
d="M90 0l59 629h349l-8 -68h-277l-20 -211h261l-6 -67h-261l-20 -214h278l-7 -69h-348zM459 790l-231 -113l-16 50l224 133z" />
    <glyph glyph-name="Ecircumflex" unicode="&#xca;" 
d="M153 629h349l-8 -68h-277l-20 -211h261l-6 -67h-261l-20 -214h278l-7 -69h-348zM498 716l-48 -39l-107 108l-127 -108l-41 39l176 156z" />
    <glyph glyph-name="Edieresis" unicode="&#xcb;" 
d="M149 629h349l-8 -68h-277l-20 -211h261l-6 -67h-261l-20 -214h278l-7 -69h-348zM225.5 749.5q-11.5 14.5 -9.5 35.5t16.5 35.5t35 14.5t33 -14.5t10.5 -35.5t-17.5 -35.5t-36 -14.5t-32 14.5zM376.5 749.5q-11.5 14.5 -9.5 35.5t16.5 35.5t35 14.5t33 -14.5t10.5 -35.5
t-17.5 -35.5t-36 -14.5t-32 14.5z" />
    <glyph glyph-name="Igrave" unicode="&#xcc;" horiz-adv-x="252" 
d="M150 629h71l-59 -629h-71zM117 860l199 -133l-25 -50l-210 113z" />
    <glyph glyph-name="Iacute" unicode="&#xcd;" horiz-adv-x="252" 
d="M91 0l59 629h71l-59 -629h-71zM321 790l-231 -113l-16 50l224 133z" />
    <glyph glyph-name="Icircumflex" unicode="&#xce;" horiz-adv-x="252" 
d="M150 629h71l-59 -629h-71zM355 716l-48 -39l-107 108l-127 -108l-41 39l176 156z" />
    <glyph glyph-name="Idieresis" unicode="&#xcf;" horiz-adv-x="252" 
d="M152 629h71l-59 -629h-71zM89.5 749.5q-11.5 14.5 -9.5 35.5t16.5 35.5t35 14.5t33 -14.5t10.5 -35.5t-17.5 -35.5t-36 -14.5t-32 14.5zM240.5 749.5q-11.5 14.5 -9.5 35.5t16.5 35.5t35 14.5t33 -14.5t10.5 -35.5t-17.5 -35.5t-36 -14.5t-32 14.5z" />
    <glyph glyph-name="Ntilde" unicode="&#xd1;" horiz-adv-x="617" 
d="M148 629h85l232 -504l49 504h71l-59 -629h-80l-237 513l-48 -513h-72zM319 770q-30 0 -56 -51l-27 19q32 104 90 104q19 0 47.5 -17t37.5 -22t15 -8q10 -5 21 -5q29 0 52 52l29 -23q-14 -48 -38.5 -74t-43.5 -26t-33 6t-40 21q-39 24 -54 24z" />
    <glyph glyph-name="Ograve" unicode="&#xd2;" horiz-adv-x="581" 
d="M366 640q110 0 168 -82q61 -84 47 -244q-15 -160 -94 -245q-74 -80 -183 -80q-111 0 -167 81q-61 86 -46 244q13 158 92 246q73 80 183 80zM478.5 503q-40.5 66 -120 66t-131 -66t-63.5 -190t28 -188t119 -64t131.5 64t64.5 188t-28.5 190zM296 860l199 -133l-25 -50
l-210 113z" />
    <glyph glyph-name="Oacute" unicode="&#xd3;" horiz-adv-x="581" 
d="M366 640q110 0 168 -82q61 -84 47 -244q-15 -160 -94 -245q-74 -80 -183 -80q-111 0 -167 81q-61 86 -46 244q13 158 92 246q73 80 183 80zM227.5 503q-51.5 -66 -63.5 -190t28 -188t119 -64t131.5 64t64.5 188t-28.5 190t-120 66t-131 -66zM500 790l-231 -113l-16 50
l224 133z" />
    <glyph glyph-name="Ocircumflex" unicode="&#xd4;" horiz-adv-x="581" 
d="M366 640q110 0 168 -82q61 -84 47 -244q-15 -160 -94 -245q-74 -80 -183 -80q-111 0 -167 81q-61 86 -46 244q13 158 92 246q73 80 183 80zM478.5 503q-40.5 66 -120 66t-131 -66t-63.5 -190t28 -188t119 -64t131.5 64t64.5 188t-28.5 190zM534 716l-48 -39l-107 108
l-127 -108l-41 39l176 156z" />
    <glyph glyph-name="Otilde" unicode="&#xd5;" horiz-adv-x="581" 
d="M366 640q110 0 168 -82q61 -84 47 -244q-15 -160 -94 -245q-74 -80 -183 -80q-111 0 -167 81q-61 86 -46 244q13 158 92 246q73 80 183 80zM227.5 503q-51.5 -66 -63.5 -190t28 -188t119 -64t131.5 64t64.5 188t-28.5 190t-120 66t-131 -66zM316 770q-30 0 -56 -51
l-27 19q32 104 90 104q19 0 47.5 -17t37.5 -22t15 -8q10 -5 21 -5q29 0 52 52l29 -23q-14 -48 -38.5 -74t-43.5 -26t-33 6t-40 21q-39 24 -54 24z" />
    <glyph glyph-name="Odieresis" unicode="&#xd6;" horiz-adv-x="581" 
d="M366 640q110 0 168 -82q61 -84 47 -244q-15 -160 -94 -245q-74 -80 -183 -80q-111 0 -167 81q-61 86 -46 244q13 158 92 246q73 80 183 80zM478.5 503q-40.5 66 -120 66t-131 -66t-63.5 -190t28 -188t119 -64t131.5 64t64.5 188t-28.5 190zM265.5 749.5
q-11.5 14.5 -9.5 35.5t16.5 35.5t35 14.5t33 -14.5t10.5 -35.5t-17.5 -35.5t-36 -14.5t-32 14.5zM416.5 749.5q-11.5 14.5 -9.5 35.5t16.5 35.5t35 14.5t33 -14.5t10.5 -35.5t-17.5 -35.5t-36 -14.5t-32 14.5z" />
    <glyph glyph-name="Ugrave" unicode="&#xd9;" horiz-adv-x="589" 
d="M220 629l-39 -402q-8 -88 27.5 -127t101 -39t108.5 39t51 127l39 402h71l-39 -402q-11 -118 -75 -178t-162.5 -60t-151 60t-41.5 178l39 402h71zM295 860l199 -133l-25 -50l-210 113z" />
    <glyph glyph-name="Uacute" unicode="&#xda;" horiz-adv-x="589" 
d="M149 629h71l-39 -402q-8 -88 27.5 -127t101 -39t108.5 39t51 127l39 402h71l-39 -402q-11 -118 -75 -178t-162.5 -60t-151 60t-41.5 178zM499 790l-231 -113l-16 50l224 133z" />
    <glyph glyph-name="Ucircumflex" unicode="&#xdb;" horiz-adv-x="589" 
d="M220 629l-39 -402q-8 -88 27.5 -127t101 -39t108.5 39t51 127l39 402h71l-39 -402q-11 -118 -75 -178t-162.5 -60t-151 60t-41.5 178l39 402h71zM533 716l-48 -39l-107 108l-127 -108l-41 39l176 156z" />
    <glyph glyph-name="Udieresis" unicode="&#xdc;" horiz-adv-x="589" 
d="M220 629l-39 -402q-8 -88 27.5 -127t101 -39t108.5 39t51 127l39 402h71l-39 -402q-11 -118 -75 -178t-162.5 -60t-151 60t-41.5 178l39 402h71zM264.5 749.5q-11.5 14.5 -9.5 35.5t16.5 35.5t35 14.5t33 -14.5t10.5 -35.5t-17.5 -35.5t-36 -14.5t-32 14.5zM415.5 749.5
q-11.5 14.5 -9.5 35.5t16.5 35.5t35 14.5t33 -14.5t10.5 -35.5t-17.5 -35.5t-36 -14.5t-32 14.5z" />
    <glyph glyph-name="agrave" unicode="&#xe0;" horiz-adv-x="496" 
d="M383 310q6 65 -15.5 93t-67.5 28t-76.5 -20t-34.5 -65h-79q8 78 61 111t130 33q121 0 147 -100q9 -34 5 -82l-29 -308h-61l1 80q-49 -91 -153 -91q-69 0 -108 45q-36 41 -30 100q6 68 58 106q47 35 116.5 35t129.5 -26zM372 199q-62 20 -109.5 20t-78.5 -18.5t-35 -60
t14.5 -66t68 -24.5t89 36.5t50.5 98.5v3zM238 731l199 -133l-25 -50l-210 113z" />
    <glyph glyph-name="aacute" unicode="&#xe1;" horiz-adv-x="496" 
d="M383 310q6 65 -15.5 93t-67.5 28t-76.5 -20t-34.5 -65h-79q8 78 61 111t130 33q121 0 147 -100q9 -34 5 -82l-29 -308h-61l1 80q-49 -91 -153 -91q-69 0 -108 45q-36 41 -30 100q6 68 58 106q47 35 116.5 35t129.5 -26zM372 199q-62 20 -109.5 20t-78.5 -18.5t-35 -60
t14.5 -66t68 -24.5t89 36.5t50.5 98.5v3zM442 661l-231 -113l-16 50l224 133z" />
    <glyph glyph-name="acircumflex" unicode="&#xe2;" horiz-adv-x="496" 
d="M383 310q6 65 -15.5 93t-67.5 28t-76.5 -20t-34.5 -65h-79q8 78 61 111t130 33q121 0 147 -100q9 -34 5 -82l-29 -308h-61l1 80q-49 -91 -153 -91q-69 0 -108 45q-36 41 -30 100q6 68 58 106q47 35 116.5 35t129.5 -26zM372 199q-62 20 -109.5 20t-78.5 -18.5t-35 -60
t14.5 -66t68.5 -24.5q51 0 90 37q39 39 49 101zM476 587l-48 -39l-107 108l-127 -108l-41 39l176 156z" />
    <glyph glyph-name="atilde" unicode="&#xe3;" horiz-adv-x="496" 
d="M383 310q6 65 -15.5 93t-67.5 28t-76.5 -20t-34.5 -65h-79q8 78 61 111t130 33q121 0 147 -100q9 -34 5 -82l-29 -308h-61l1 80q-49 -91 -153 -91q-69 0 -108 45q-36 41 -30 100q6 68 58 106q47 35 116.5 35t129.5 -26zM372 199q-62 20 -109.5 20t-78.5 -18.5t-35 -60
t14.5 -66t68 -24.5t89 36.5t50.5 98.5v3zM257 641q-30 0 -56 -51l-27 19q32 104 90 104q19 0 47.5 -17t37.5 -22t15 -8q10 -5 21 -5q29 0 52 52l29 -23q-14 -48 -38.5 -74t-43.5 -26t-33 6t-40 22q-39 23 -54 23z" />
    <glyph glyph-name="adieresis" unicode="&#xe4;" horiz-adv-x="496" 
d="M383 310q6 65 -15.5 93t-67.5 28t-76.5 -20t-34.5 -65h-79q8 78 61 111t130 33q121 0 147 -100q9 -34 5 -82l-29 -308h-61l1 80q-49 -91 -153 -91q-69 0 -108 45q-36 41 -30 100q6 68 58 106q47 35 116.5 35t129.5 -26zM372 199q-62 20 -109.5 20t-78.5 -18.5t-35 -60
t14.5 -66t68.5 -24.5q51 0 90 37q39 39 49 101zM207.5 619.5q-11.5 14.5 -9.5 35.5t16.5 35.5t35 14.5t33 -14.5t10.5 -35.5t-17.5 -35.5t-36 -14.5t-32 14.5zM358.5 619.5q-11.5 14.5 -9.5 35.5t16.5 35.5t35 14.5t33 -14.5t10.5 -35.5t-17.5 -35.5t-36 -14.5t-32 14.5z
" />
    <glyph glyph-name="egrave" unicode="&#xe8;" horiz-adv-x="463" 
d="M257 53q88 0 110 87h73q-17 -72 -68 -111.5t-121 -39.5q-86 0 -133 67q-50 70 -38 182q12 116 73 184q60 68 145 68q95 0 134 -81q36 -73 12 -187h-295q-10 -117 55 -156q22 -13 53 -13zM342 415q-19 12 -48 12t-52 -11.5t-40 -31.5q-36 -40 -46 -102h230q11 100 -44 133
zM223 736l199 -133l-25 -50l-210 113z" />
    <glyph glyph-name="eacute" unicode="&#xe9;" horiz-adv-x="463" 
d="M367 140h73q-17 -72 -68 -111.5t-121 -39.5q-86 0 -133 67q-50 70 -38 182q12 116 73 184q60 68 145 68q95 0 134 -81q36 -73 12 -187h-295q-6 -76 21 -120q29 -49 87 -49q88 0 110 87zM294 427q-55 0 -92 -43q-36 -40 -46 -102h230q7 61 -14 100q-10 21 -29.5 33
t-48.5 12zM427 666l-231 -113l-16 50l224 133z" />
    <glyph glyph-name="ecircumflex" unicode="&#xea;" horiz-adv-x="463" 
d="M260 53q88 0 110 87h73q-17 -72 -68 -111.5t-121 -39.5q-86 0 -133 67q-50 70 -38 182q12 116 73 184q60 68 145 68q95 0 134 -81q36 -73 12 -187h-295q-10 -117 56 -156q21 -13 52 -13zM346 415q-20 12 -49 12t-52 -11.5t-41 -31.5q-35 -40 -45 -102h230q11 100 -43 133
zM464 592l-48 -39l-107 108l-127 -108l-41 39l176 156z" />
    <glyph glyph-name="edieresis" unicode="&#xeb;" horiz-adv-x="463" 
d="M257 53q88 0 110 87h73q-17 -72 -68 -111.5t-121 -39.5q-86 0 -133 67q-50 70 -38 182q12 116 73 184q60 68 145 68q95 0 134 -81q36 -73 12 -187h-295q-10 -117 55 -156q22 -13 53 -13zM342 415q-19 12 -48 12t-52 -11.5t-40 -31.5q-36 -40 -46 -102h230q11 100 -44 133
zM193.5 619.5q-11.5 14.5 -9.5 35.5t16.5 35.5t35 14.5t33 -14.5t10.5 -35.5t-17.5 -35.5t-36 -14.5t-32 14.5zM344.5 619.5q-11.5 14.5 -9.5 35.5t16.5 35.5t35 14.5t33 -14.5t10.5 -35.5t-17.5 -35.5t-36 -14.5t-32 14.5z" />
    <glyph glyph-name="igrave" unicode="&#xec;" horiz-adv-x="269" 
d="M140 479h71l-45 -479h-71zM109 731l199 -133l-25 -50l-210 113z" />
    <glyph glyph-name="iacute" unicode="&#xed;" horiz-adv-x="269" 
d="M95 0l45 479h71l-45 -479h-71zM313 661l-231 -113l-16 50l224 133z" />
    <glyph glyph-name="icircumflex" unicode="&#xee;" horiz-adv-x="269" 
d="M140 479h71l-45 -479h-71zM348 587l-48 -39l-107 108l-127 -108l-41 39l176 156z" />
    <glyph glyph-name="idieresis" unicode="&#xef;" horiz-adv-x="269" 
d="M142 479h71l-45 -479h-71zM81.5 619.5q-11.5 14.5 -9.5 35.5t16.5 35.5t35 14.5t33 -14.5t10.5 -35.5t-17.5 -35.5t-36 -14.5t-32 14.5zM232.5 619.5q-11.5 14.5 -9.5 35.5t16.5 35.5t35 14.5t33 -14.5t10.5 -35.5t-17.5 -35.5t-36 -14.5t-32 14.5z" />
    <glyph glyph-name="ntilde" unicode="&#xf1;" horiz-adv-x="544" 
d="M351 490q77 0 114.5 -56t27.5 -153l-26 -281h-70l26 281q7 69 -19 104t-81 35t-93.5 -51.5t-46.5 -142.5l-21 -226h-71l45 478h61l-1 -93q54 105 155 105zM273 641q-30 0 -56 -51l-27 19q32 104 90 104q19 0 47.5 -17t37.5 -22t15 -8q10 -5 21 -5q29 0 52 52l29 -23
q-14 -48 -38.5 -74t-43.5 -26t-33 6t-40 22q-39 23 -54 23z" />
    <glyph glyph-name="ograve" unicode="&#xf2;" horiz-adv-x="492" 
d="M304 490q44 0 79.5 -16t58.5 -48q52 -68 40 -187q-12 -120 -75 -187q-60 -63 -150 -63t-138 63q-51 67 -39 187t74 187q60 64 150 64zM300 422q-63 0 -101 -48.5t-46 -134t18.5 -134t89.5 -48.5t102 48.5t47 134t-19.5 134t-90.5 48.5zM237 731l199 -133l-25 -50
l-210 113z" />
    <glyph glyph-name="oacute" unicode="&#xf3;" horiz-adv-x="492" 
d="M304 490q91 0 138 -64q52 -68 40 -187q-12 -120 -75 -187q-60 -63 -150 -63t-138 63q-51 67 -39 187t74 187q30 32 68.5 48t81.5 16zM300 422q-63 0 -101 -48.5t-46 -134t18.5 -134t89.5 -48.5t102 48.5t47 134t-19.5 134t-90.5 48.5zM441 661l-231 -113l-16 50l224 133z
" />
    <glyph glyph-name="ocircumflex" unicode="&#xf4;" horiz-adv-x="492" 
d="M304 490q44 0 79.5 -16t58.5 -48q52 -68 40 -187q-12 -120 -75 -187q-60 -63 -150 -63t-138 63q-51 67 -39 187t74 187q60 64 150 64zM300 422q-63 0 -101 -48.5t-46 -134t18.5 -134t89.5 -48.5t102 48.5t47 134t-19.5 134t-90.5 48.5zM474 587l-48 -39l-107 108
l-127 -108l-41 39l176 156z" />
    <glyph glyph-name="otilde" unicode="&#xf5;" horiz-adv-x="492" 
d="M304 490q91 0 138 -64q52 -68 40 -187q-12 -120 -75 -187q-60 -63 -150 -63t-138 63q-51 67 -39 187t74 187q30 32 68.5 48t81.5 16zM300 422q-63 0 -101 -48.5t-46 -134t18.5 -134t89.5 -48.5t102 48.5t47 134t-19.5 134t-90.5 48.5zM257 641q-30 0 -56 -51l-27 19
q32 104 90 104q19 0 47.5 -17t37.5 -22t15 -8q10 -5 21 -5q29 0 52 52l29 -23q-14 -48 -38.5 -74t-43.5 -26t-33 6t-40 22q-39 23 -54 23z" />
    <glyph glyph-name="odieresis" unicode="&#xf6;" horiz-adv-x="492" 
d="M304 490q44 0 79.5 -16t58.5 -48q52 -68 40 -187q-12 -120 -75 -187q-60 -63 -150 -63t-138 63q-51 67 -39 187t74 187q60 64 150 64zM300 422q-63 0 -101 -48.5t-46 -134t18.5 -134t89.5 -48.5t102 48.5t47 134t-19.5 134t-90.5 48.5zM206.5 619.5q-11.5 14.5 -9.5 35.5
t16.5 35.5t35 14.5t33 -14.5t10.5 -35.5t-17.5 -35.5t-36 -14.5t-32 14.5zM357.5 619.5q-11.5 14.5 -9.5 35.5t16.5 35.5t35 14.5t33 -14.5t10.5 -35.5t-17.5 -35.5t-36 -14.5t-32 14.5z" />
    <glyph glyph-name="ugrave" unicode="&#xf9;" horiz-adv-x="545" 
d="M400 95q-53 -104 -153 -104q-73 0 -113 45t-32 139l29 304h71l-28 -298q-12 -121 90 -121q60 0 102 52q40 51 48 134l22 233h71l-45 -479h-71zM260 769l199 -133l-25 -50l-210 113z" />
    <glyph glyph-name="uacute" unicode="&#xfa;" horiz-adv-x="545" 
d="M264 60q60 0 102 52q40 51 48 134l22 233h71l-45 -479h-71l9 95q-53 -104 -153 -104q-73 0 -113 45t-32 139l29 304h71l-28 -298q-12 -121 90 -121zM464 699l-231 -113l-16 50l224 133z" />
    <glyph glyph-name="ucircumflex" unicode="&#xfb;" horiz-adv-x="545" 
d="M400 95q-53 -104 -153 -104q-73 0 -113 45t-32 139l29 304h71l-28 -298q-12 -121 90 -121q60 0 102 52q40 51 48 134l22 233h71l-45 -479h-71zM498 625l-48 -39l-107 108l-127 -108l-41 39l176 156z" />
    <glyph glyph-name="udieresis" unicode="&#xfc;" horiz-adv-x="545" 
d="M400 95q-53 -104 -153 -104q-73 0 -113 45t-32 139l29 304h71l-28 -298q-12 -121 90 -121q60 0 102 52q40 51 48 134l22 233h71l-45 -479h-71zM226.5 619.5q-11.5 14.5 -9.5 35.5t16.5 35.5t35 14.5t33 -14.5t10.5 -35.5t-17.5 -35.5t-36 -14.5t-32 14.5zM377.5 619.5
q-11.5 14.5 -9.5 35.5t16.5 35.5t35 14.5t33 -14.5t10.5 -35.5t-17.5 -35.5t-36 -14.5t-32 14.5z" />
    <glyph glyph-name="dotlessi" unicode="&#x131;" horiz-adv-x="252" 
d="M136 479h71l-45 -479h-71z" />
    <glyph glyph-name="apostrophe" unicode="&#x2bc;" horiz-adv-x="166" 
d="M116 538q-13 13 -11 35t18 37t41.5 15t40.5 -22.5t11.5 -56.5t-27 -69.5t-65.5 -57.5l-50 29q61 32 75 75q-20 2 -33 15z" />
    <glyph glyph-name="circumflex" unicode="&#x2c6;" horiz-adv-x="366" 
d="M412 716l-48 -39l-107 108l-127 -108l-41 39l176 156z" />
    <glyph glyph-name="tilde" unicode="&#x2dc;" horiz-adv-x="329" 
d="M173 770q-30 0 -56 -51l-27 19q32 104 90 104q19 0 47.5 -17t37.5 -22t15 -8q10 -5 21 -5q29 0 52 52l29 -23q-14 -48 -38.5 -74t-43.5 -26t-33 6t-40 21q-39 24 -54 24z" />
    <glyph glyph-name="endash" unicode="&#x2013;" horiz-adv-x="427" 
d="M80 325h328l-7 -68h-327z" />
    <glyph glyph-name="emdash" unicode="&#x2014;" horiz-adv-x="653" 
d="M80 325h554l-6 -68h-554z" />
    <glyph glyph-name="quoteleft" unicode="&#x2018;" horiz-adv-x="193" 
d="M175 433.5q-16 -15.5 -41 -15.5t-40 23t-11.5 57.5t28 70t66.5 57.5l47 -29q-60 -33 -74 -76q20 -2 32.5 -15t10.5 -35t-18 -37.5z" />
    <glyph glyph-name="quoteright" unicode="&#x2019;" horiz-adv-x="193" 
d="M104 611q16 15 41.5 15t40.5 -22t11.5 -57t-28 -70.5t-66.5 -58.5l-47 30q60 33 74 76q-20 2 -33 15t-11 35t18 37z" />
    <glyph glyph-name="rupeesymbol" unicode="&#x20b9;" horiz-adv-x="523" 
d="M142 629h375l-6 -49h-164q58 -36 66 -103h89l-4 -48h-86q-16 -115 -121 -159q-37 -15 -87 -20l223 -250h-101l-220 248l5 48h55q77 0 118.5 38t50.5 95h-212l5 48h208q-6 46 -40.5 74.5t-103.5 28.5h-55z" />
    <glyph glyph-name="minus" unicode="&#x2212;" horiz-adv-x="439" 
d="M399 325l-7 -67h-297l7 67h297z" />
    <glyph glyph-name="zero.propold" horiz-adv-x="478" 
d="M471.5 267.5q-13.5 -137.5 -74 -208t-145.5 -70.5q-89 0 -134 71q-47 74 -33 212.5t73.5 208.5t147 70t133.5 -73t32.5 -210.5zM399 270q20 212 -101 212q-62 0 -96 -54t-44 -158q-22 -211 101 -211q63 0 96.5 53.5t43.5 157.5z" />
    <glyph glyph-name="one.propold" horiz-adv-x="298" 
d="M257 541l-50 -541h-70l41 446q-48 -32 -95 -34l7 77q64 11 110 52h57z" />
    <glyph glyph-name="two.propold" horiz-adv-x="517" 
d="M135 73h321l-6 -73h-392l7 84q8 80 45 121.5t107 58.5l95 25q49 12 74 36t29 63t-22.5 66t-78.5 27t-87 -23t-45 -70h-79q13 78 69 120.5t145 42.5q80 0 129 -49q47 -47 41 -113.5t-43 -103t-107 -54.5l-102 -27q-92 -22 -96 -99z" />
    <glyph glyph-name="three.propold" horiz-adv-x="506" 
d="M289 483q-100 0 -127 -93h-75q19 83 76 124q51 37 131 37q84 0 132 -47q47 -46 41 -120q-5 -51 -33.5 -82t-76.5 -50q54 -20 81.5 -67.5t22.5 -99.5t-23.5 -86.5t-48.5 -59.5q-64 -53 -158 -53q-89 0 -141 50q-57 54 -47 152h72q-5 -69 29.5 -101.5t93.5 -32.5
q60 0 103 36q41 33 47 89q7 90 -68 121q-27 11 -64 11h-55l5 63h39q65 0 104.5 26t44.5 75t-23 78.5t-82 29.5z" />
    <glyph glyph-name="four.propold" horiz-adv-x="504" 
d="M436 546l-41 -425h98l-6 -67h-98l-16 -159h-70l16 159h-293l6 61l337 431h67zM112 115h215l28 307z" />
    <glyph glyph-name="five.propold" horiz-adv-x="512" 
d="M205 296q44 10 86 10q94 0 143 -53t40 -147q-10 -96 -75 -158q-66 -62 -159 -62q-78 0 -124 48q-51 54 -42 141h69q-5 -57 23.5 -87t80.5 -30q62 0 106 42q43 42 48.5 105.5t-27 99.5t-103.5 36h-146l54 304h311l-8 -71h-244z" />
    <glyph glyph-name="six.propold" horiz-adv-x="516" 
d="M439 470q-7 98 -91 98q-78 0 -128 -74q-56 -82 -66 -246q-2 -23 -1 -44q22 135 119 166q29 9 63 9t65.5 -14.5t53.5 -40.5q47 -57 39 -142q-10 -87 -67.5 -140.5t-144.5 -53.5q-100 0 -155 90q-52 88 -40 225q14 156 86 247q71 90 181 90q77 0 120 -47t42 -123h-76z
M181.5 182q-4.5 -55 26 -88t81.5 -33t88 33t42 91t-25.5 91t-81 33t-88.5 -36t-42.5 -91z" />
    <glyph glyph-name="seven.propold" horiz-adv-x="423" 
d="M458 551l-6 -67l-325 -582h-87l337 579h-310l6 70h385z" />
    <glyph glyph-name="eight.propold" horiz-adv-x="553" 
d="M342 640q48 0 84.5 -13.5t61.5 -36.5q54 -50 46 -125q-4 -53 -40 -93q-37 -41 -95 -51l15 -6q60 -26 89.5 -61.5t22.5 -103.5t-71 -114.5t-173 -46.5q-98 0 -158 51q-59 51 -51 128q5 62 45 101t100 49q-45 24 -65 50q-38 50 -33 105q6 75 66 120q62 47 156 47zM283 289
q-56 -6 -95 -39q-37 -32 -41 -75q-6 -53 37 -85q39 -29 109 -29t113 26t46.5 63t-16.5 59.5t-55 37.5zM264 381l63 -28q54 2 91 31t42.5 77t-29 77.5t-94.5 29.5q-57 0 -97 -28q-41 -30 -45.5 -77.5t69.5 -81.5z" />
    <glyph glyph-name="nine.propold" horiz-adv-x="522" 
d="M316 551q48 0 87.5 -25.5t64.5 -69.5q51 -88 38 -229q-25 -246 -158 -317q-44 -24 -92 -24t-81.5 14.5t-56.5 41.5q-48 55 -40 141h75q-5 -57 21.5 -91t74 -34t78 19.5t51.5 55.5q42 70 57 205q1 20 2 39.5t0 40.5q-14 -77 -60.5 -119.5t-111.5 -42.5q-77 0 -124 56
q-48 57 -40 142q8 88 66 142q59 55 149 55zM304 481q-54 0 -89 -34.5t-40.5 -93t23.5 -93t83 -34.5q51 0 89 38q35 35 40.5 91.5t-23.5 91t-83 34.5z" />
    </font>
</defs>
</svg>
