<?xml version="1.0" standalone="no"?>
<!DOCTYPE svg PUBLIC "-//W3C//DTD SVG 1.1//EN" "http://www.w3.org/Graphics/SVG/1.1/DTD/svg11.dtd" >
<svg>
<metadata>
Created by FontForge 20120731 at Tue Jul  8 22:17:40 2014
 By World Wide Web Server
Copyright (c) 2011, Jonathan Pinhorn (pinhorn.typedesign@gmail.com), with Reserved Font Names "Karla" and "Karla Tamil".
</metadata>
<defs>
<font id="Karla-BoldItalic" horiz-adv-x="276" >
  <font-face 
    font-family="Karla"
    font-weight="700"
    font-style="italic"
    font-stretch="normal"
    units-per-em="1000"
    panose-1="0 0 0 0 0 0 0 0 0 0"
    ascent="800"
    descent="-200"
    x-height="487"
    cap-height="651"
    bbox="-88 -252 922.849 917"
    underline-thickness="50"
    underline-position="-50"
    unicode-range="U+0020-2212"
  />
<missing-glyph horiz-adv-x="533" 
 />
    <glyph glyph-name=".notdef" horiz-adv-x="533" 
 />
    <glyph glyph-name=".null" horiz-adv-x="0" 
 />
    <glyph glyph-name="nonmarkingreturn" horiz-adv-x="533" 
 />
    <glyph glyph-name="space" unicode=" " horiz-adv-x="229" 
 />
    <glyph glyph-name="space" unicode="&#xa0;" horiz-adv-x="229" 
 />
    <glyph glyph-name="exclam" unicode="!" horiz-adv-x="265" 
d="M141 668h120l-54 -445h-94zM85.5 14q-19.5 23 -16.5 57.5t26.5 58t57.5 23.5t53 -23.5t16 -58t-27 -57.5t-57 -23t-52.5 23z" />
    <glyph glyph-name="quotedbl" unicode="&#x22;" horiz-adv-x="352" 
d="M203 686l-38 -239h-80l8 239h110zM387 686l-38 -239h-80l8 239h110z" />
    <glyph glyph-name="numbersign" unicode="#" horiz-adv-x="615" 
d="M372 163h-120l-25 -130h-103l25 130h-82l14 80h82l30 156h-83l16 80h82l25 128h103l-25 -128h121l25 128h103l-25 -128h86l-18 -80h-83l-30 -156h85l-15 -80h-84l-25 -130h-104zM266 243h121l29 156h-120z" />
    <glyph glyph-name="dollar" unicode="$" horiz-adv-x="625" 
d="M475 344q66 -26 95.5 -65.5t23.5 -104.5q-6 -73 -64 -124q-65 -56 -170 -63l-9 -89h-76l8 91q-95 11 -148 63q-58 56 -48 152h109q-5 -47 20 -71t78 -32l18 190l-46 18q-73 28 -111 68t-31 111.5t63.5 119t158.5 55.5l8 76h78l-8 -77q164 -21 175 -193h-108
q-2 29 -21.5 52t-54.5 34l-18 -179zM443 126q24 22 27 50q4 55 -56 82l-28 12l-15 -171q48 5 72 27zM269 531.5q-23 -20.5 -25.5 -47.5t10.5 -43t42 -28l26 -13l15 158q-45 -6 -68 -26.5z" />
    <glyph glyph-name="percent" unicode="%" horiz-adv-x="691" 
d="M240 664q25 0 47 -9.5t37 -28.5q35 -42 27 -116.5t-48.5 -112t-90.5 -37.5q-53 0 -83 38q-34 42 -26 114q6 72 48 114q38 38 89 38zM233 587q-42 0 -49 -75q-9 -75 35 -75t49 75q7 75 -35 75zM554 651h111l-459 -651h-112zM655 137.5q-7 -75.5 -47 -113.5t-91 -38
q-53 0 -83 38q-35 42 -27 117t48.5 112.5t92 37.5t83 -39t24.5 -114.5zM538 214q-41 0 -48 -74q-7 -76 34 -76q18 0 32 17t18.5 58t-6.5 58t-30 17z" />
    <glyph glyph-name="ampersand" unicode="&#x26;" horiz-adv-x="872" 
d="M731 343q-51 -123 -118 -205l12 -13q28 -32 63 -32q21 0 38 17.5t22 55.5h99q-10 -83 -49.5 -131.5t-108.5 -48.5q-82 0 -149 79q-100 -79 -208 -79q-101 0 -166 57q-66 57 -58 143q11 130 179 159l-13 15q-58 68 -51 143q6 69 63 113q59 46 151 46q91 0 141 -46
q46 -44 40 -109t-48 -110t-120 -77l100 -112q62 74 111 181zM343 283q-109 -15 -113 -90q-5 -41 25 -69t88 -28q67 0 130 42zM496 489q2 29 -16.5 48.5t-54 19.5t-58 -21t-25.5 -47.5t6 -46t29 -40.5l18 -20q48 21 72 46.5t29 60.5z" />
    <glyph glyph-name="quotesingle" unicode="'" horiz-adv-x="166" 
d="M202 677l-38 -240h-80l8 240h110z" />
    <glyph glyph-name="parenleft" unicode="(" horiz-adv-x="364" 
d="M421 692q-85 -90 -132 -180t-56.5 -193t20.5 -192t99 -179l-86 -67q-171 186 -148 438q24 253 231 438z" />
    <glyph glyph-name="parenright" unicode=")" horiz-adv-x="364" 
d="M180 757q170 -186 148 -438q-22 -247 -231 -438l-74 67q88 90 135 179t56 192q10 103 -20.5 193t-99.5 180z" />
    <glyph glyph-name="asterisk" unicode="*" horiz-adv-x="368" 
d="M193 529l-96 37l34 71l85 -49l-1 118h74l-22 -118l93 52l22 -73l-102 -37l69 -81l-58 -52l-57 100l-78 -100l-48 52z" />
    <glyph glyph-name="plus" unicode="+" horiz-adv-x="492" 
d="M346 491l-17 -192h174l-11 -107h-174l-18 -192h-109l18 192h-175l10 107h175l18 192h109z" />
    <glyph glyph-name="comma" unicode="," horiz-adv-x="232" 
d="M63 18.5q-16 18.5 -13.5 48.5t26 51.5t60.5 21.5t57 -32.5t15.5 -79t-36.5 -93.5t-83 -74l-77 46q75 40 92 88q-25 5 -41 23.5z" />
    <glyph glyph-name="hyphen" unicode="-" horiz-adv-x="338" 
d="M76 356h254l-11 -107h-253z" />
    <glyph glyph-name="period" unicode="." horiz-adv-x="196" 
d="M33 72q2 34 26 57.5t57 23.5t53 -23.5t17 -57.5q-3 -35 -27 -58t-58 -23t-53.5 23t-14.5 58z" />
    <glyph glyph-name="slash" unicode="/" horiz-adv-x="429" 
d="M349 746h113l-311 -828h-111z" />
    <glyph glyph-name="zero" unicode="0" horiz-adv-x="573" 
d="M365 664q112 0 169 -83q60 -89 44 -256q-15 -166 -92 -255q-74 -84 -185 -84t-169 84q-59 87 -43 255q16 169 91 256q73 83 185 83zM446 495.5q-29 58.5 -91.5 58.5t-102.5 -58.5t-50.5 -170t18 -169.5t91.5 -58t102.5 58t50.5 169.5t-18 170z" />
    <glyph glyph-name="one" unicode="1" horiz-adv-x="323" 
d="M301 655l-61 -655h-111l48 509q-48 -24 -94 -24l11 117q70 11 125 53h82z" />
    <glyph glyph-name="two" unicode="2" horiz-adv-x="546" 
d="M174 111h334l-10 -111h-444l10 113q8 81 45 128q35 44 107 75l126 51q79 33 85 104q4 36 -17.5 61.5t-65.5 25.5t-75 -24t-41 -71h-122q12 100 81 151q67 50 164 50q92 0 146 -54q56 -56 48.5 -137.5t-49 -130.5t-121.5 -83l-128 -52q-36 -14 -53 -31.5t-19 -46.5z" />
    <glyph glyph-name="three" unicode="3" horiz-adv-x="563" 
d="M341 554q-97 0 -121 -82h-116q19 100 85 146t158 46q98 0 154 -50q58 -51 50 -132q-11 -105 -110 -141q51 -20 79.5 -59.5t24 -91t-25 -87.5t-54.5 -62q-70 -55 -175 -55q-100 0 -163 56q-70 61 -61 163h118q-2 -50 29 -78.5t86.5 -28.5t88.5 27t38 69q4 42 -22 65
t-86 23h-79l9 96h69q51 0 81 24t33.5 63.5t-18 64t-72.5 24.5z" />
    <glyph glyph-name="four" unicode="4" horiz-adv-x="538" 
d="M486 658l-38 -411h101l-9 -104h-101l-14 -143h-109l13 143h-296l8 92l339 423h106zM171 235h173l22 243z" />
    <glyph glyph-name="five" unicode="5" horiz-adv-x="526" 
d="M245 397q52 9 94 9q91 0 140 -49t40 -140q-8 -98 -76 -164q-69 -67 -169 -67q-98 0 -151 55q-55 57 -47 155h113q-5 -50 22.5 -74t72.5 -24q48 0 84 34q33 32 39 85q8 97 -110 97h-180l58 337h354l-11 -112h-247z" />
    <glyph glyph-name="six" unicode="6" horiz-adv-x="549" 
d="M441 471q-4 83 -75 83q-77 0 -125 -85q-49 -87 -49 -228q35 159 178 159q83 0 130 -58q46 -58 38 -149q-10 -94 -74 -150q-65 -57 -159 -57q-110 0 -173 92q-61 92 -47 236q16 167 95 260q77 90 193 90q87 0 139 -53q50 -52 46 -140h-117zM334 300q-42 0 -73.5 -28
t-35.5 -74q-4 -43 22 -72q24 -28 67 -28t74 27.5t36 74t-21.5 73.5t-68.5 27z" />
    <glyph glyph-name="seven" unicode="7" horiz-adv-x="450" 
d="M496 651l-12 -117l-298 -534h-147l316 533h-283l11 118h413z" />
    <glyph glyph-name="eight" unicode="8" horiz-adv-x="585" 
d="M574 477q-5 -49 -39 -87t-91 -49l3 -2q66 -30 93 -65q31 -39 26 -90.5t-24.5 -85.5t-53.5 -59q-74 -53 -190 -53q-112 0 -176 54q-63 54 -55 136q7 61 49 98t102 45q-75 41 -96 109q-8 26 -5 58q8 83 72 130.5t167 47.5t164.5 -52.5t53.5 -134.5zM309 277
q-52 -3 -88 -28.5t-39 -60.5q-4 -40 34 -66q34 -24 98 -24t99.5 19t38 46.5t-11.5 44.5t-41 30zM241 510q-10 -13 -12 -33q-4 -38 53 -63l64 -29q42 0 76 24q34 25 37.5 62t-26.5 60t-81 23q-77 0 -111 -44z" />
    <glyph glyph-name="nine" unicode="9" horiz-adv-x="552" 
d="M334 664q50 0 93.5 -23.5t73.5 -66.5q65 -94 51 -238q-25 -252 -168 -326q-47 -24 -100 -24t-91 15t-65 43q-57 59 -47 149h115q-3 -45 21.5 -70t63 -25t66 17.5t47.5 50.5q36 61 49 180q4 28 2 57q-41 -152 -180 -152q-82 0 -128 57.5t-38 148.5q8 92 73 150
q65 57 162 57zM248.5 525.5q-31.5 -27.5 -36.5 -74.5t22 -73.5t68 -26.5t73 28t37 73q4 46 -23 74q-26 27 -67.5 27t-73 -27.5z" />
    <glyph glyph-name="colon" unicode=":" horiz-adv-x="246" 
d="M58 88q2 34 26 57.5t57 23.5t53 -23.5t17 -58.5t-27 -58t-58 -23t-53.5 23t-14.5 59zM87 384q2 34 26 57.5t57 23.5t53 -23.5t17 -58.5t-27 -57.5t-58 -22.5t-53.5 22.5t-14.5 58.5z" />
    <glyph glyph-name="semicolon" unicode=";" horiz-adv-x="281" 
d="M90.5 18.5q-16.5 18.5 -14 48.5t26 51.5t50.5 21.5t42.5 -9t25.5 -24q20 -30 15.5 -77.5t-37 -94.5t-83.5 -74l-76 46q74 41 91 88q-24 5 -40.5 23.5zM128.5 325.5q-19.5 22.5 -16.5 57.5t27 58.5t57.5 23.5t53.5 -23.5t17 -58.5t-27.5 -57.5t-58 -22.5t-53 22.5z" />
    <glyph glyph-name="less" unicode="&#x3c;" horiz-adv-x="456" 
d="M466 528l-282 -204l243 -204l-82 -93l-279 242l11 111l324 241z" />
    <glyph glyph-name="equal" unicode="=" horiz-adv-x="457" 
d="M404 199l-11 -106h-314l10 106h315zM424 411l-9 -105h-315l9 105h315z" />
    <glyph glyph-name="greater" unicode="&#x3e;" horiz-adv-x="456" 
d="M171 621l279 -241l-10 -111l-326 -242l-63 93l281 204l-242 204z" />
    <glyph glyph-name="question" unicode="?" horiz-adv-x="467" 
d="M484 482q-5 -54 -31.5 -89.5t-79.5 -62.5q-46 -24 -60 -41q-23 -30 -25 -64l-2 -28h-111l4 40q8 90 61 129q18 13 42 25.5t39 23t24 21.5q16 18 19 47.5t-17.5 50t-63.5 20.5t-70.5 -23.5t-33.5 -61.5h-114q13 89 71 142t155 53t149 -52t44 -130zM171.5 124.5
q23.5 22.5 57 22.5t53.5 -22.5t16 -57.5q-2 -35 -26.5 -58t-59 -23t-52.5 23t-15 58t26.5 57.5z" />
    <glyph glyph-name="at" unicode="@" horiz-adv-x="932" 
d="M586 279q7 68 -41 68q-42 0 -81 -41q-44 -47 -50 -113q-3 -44 15 -67t49.5 -23t53.5 19t44 58zM398 631q85 33 175.5 33t157.5 -29t112 -79q92 -104 78 -263q-11 -133 -88 -215q-71 -74 -158 -74q-43 0 -68.5 17.5t-32.5 48.5l-3 16q-21 -38 -49 -60t-66 -22t-63.5 14
t-43.5 39q-42 56 -34 134q10 104 82 177q70 72 160 72q61 0 93.5 -39.5t24.5 -120.5l-13 -129q-5 -51 26 -51q35 0 71 44q43 54 52 149q12 114 -50 186q-67 76 -192 76q-149 0 -253 -102t-118 -253q-14 -144 67 -231q84 -90 246 -90l-9 -101q-103 0 -183.5 33.5t-134.5 92
t-79 137t-16 174.5t51 180t107.5 143.5t150.5 92.5z" />
    <glyph glyph-name="A" unicode="A" horiz-adv-x="568" 
d="M280 651h138l131 -651h-117l-27 138h-216l-54 -138h-115zM226 230h161l-54 277z" />
    <glyph glyph-name="B" unicode="B" horiz-adv-x="585" 
d="M144 651h239q98 0 147 -51q44 -45 38 -122q-5 -55 -36 -94t-82 -55q48 -11 76.5 -49.5t22.5 -98.5q-12 -122 -123 -165q-42 -16 -104 -16h-239zM329 106q93 0 102 82q4 38 -17 60.5t-70 22.5h-126l-16 -165h127zM228 378h124q47 0 72.5 22.5t29.5 61t-17 61.5t-69 23
h-124z" />
    <glyph glyph-name="C" unicode="C" horiz-adv-x="573" 
d="M373 664q54 0 92.5 -14.5t64.5 -41.5q54 -53 60 -143l-119 -24q-8 51 -34.5 82t-71.5 31q-60 0 -103 -56q-44 -60 -56 -171q-9 -109 20 -169.5t90.5 -60.5t95 33.5t38.5 84.5h118q-11 -110 -79 -169.5t-178 -59.5q-117 0 -177.5 90t-44.5 251t95 251q76 86 189 86z" />
    <glyph glyph-name="D" unicode="D" horiz-adv-x="619" 
d="M336 651q133 0 207.5 -88t60.5 -238q-14 -146 -105 -237q-90 -88 -224 -88h-193l61 651h193zM203 111h82q82 0 137 61q53 57 63 153q8 97 -34 155q-45 60 -127 60h-81z" />
    <glyph glyph-name="E" unicode="E" horiz-adv-x="529" 
d="M143 651h379l-10 -105h-269l-16 -167h252l-10 -106h-252l-16 -167h269l-9 -106h-379z" />
    <glyph glyph-name="F" unicode="F" horiz-adv-x="494" 
d="M144 651h371l-10 -105h-261l-16 -168h238l-11 -104h-237l-25 -274h-110z" />
    <glyph glyph-name="G" unicode="G" horiz-adv-x="612" 
d="M466 106q-48 -120 -156 -120q-111 0 -173 92q-65 97 -51 244q16 156 103 250q84 92 207 92q84 0 136 -40t74 -128l-115 -28q-37 86 -112 86q-66 0 -115 -62q-52 -68 -60 -170q-10 -101 24.5 -162.5t95.5 -61.5t101 38t50 107q0 9 9 9l17 -1q-8 -94 -36 -160
q0 40 5.5 81.5t5.5 82.5l-130 3l7 78h235l-31 -336h-89q-1 26 -1 53t-1 53z" />
    <glyph glyph-name="H" unicode="H" horiz-adv-x="638" 
d="M254 651l-26 -270h253l26 270h109l-61 -651h-110l25 274h-252l-25 -274h-110l61 651h110z" />
    <glyph glyph-name="I" unicode="I" 
d="M144 651h110l-61 -651h-110z" />
    <glyph glyph-name="J" unicode="J" horiz-adv-x="404" 
d="M158 -14q-70 0 -141 41l12 121q62 -43 130 -43q38 0 57.5 24t24.5 75l42 447h112l-43 -447q-22 -218 -194 -218z" />
    <glyph glyph-name="K" unicode="K" horiz-adv-x="593" 
d="M255 651l-25 -265l253 265h150l-285 -293l241 -358h-142l-181 273l-51 -53l-21 -220h-111l61 651h111z" />
    <glyph glyph-name="L" unicode="L" horiz-adv-x="447" 
d="M202 106h239l-9 -106h-349l61 651h110z" />
    <glyph glyph-name="M" unicode="M" horiz-adv-x="789" 
d="M301 651l121 -382l193 382h152l-61 -651h-111l45 490l-202 -420h-71l-127 436l-47 -506h-110l61 651h157z" />
    <glyph glyph-name="N" unicode="N" horiz-adv-x="648" 
d="M262 651l212 -456l43 456h110l-61 -651h-111l-220 472l-44 -472h-110l61 651h120z" />
    <glyph glyph-name="O" unicode="O" horiz-adv-x="618" 
d="M387 664q122 0 185 -85q67 -88 51 -253q-15 -166 -99 -256q-78 -84 -201 -84q-121 0 -185 86q-65 88 -49 254q15 166 98 255q77 83 200 83zM483.5 495q-36.5 60 -106.5 60t-117.5 -60.5t-58 -170.5t25.5 -169t106.5 -59t117.5 59.5t58 169.5t-25.5 170z" />
    <glyph glyph-name="P" unicode="P" horiz-adv-x="525" 
d="M500.5 597.5q50.5 -53.5 41 -154t-70.5 -154.5t-161 -54h-97l-22 -235h-111l61 651h209q100 0 150.5 -53.5zM321 342q48 0 75.5 28t31.5 73q5 45 -17.5 74t-71.5 29h-97l-19 -204h98z" />
    <glyph glyph-name="Q" unicode="Q" horiz-adv-x="620" 
d="M491 -61q39 0 89 23l-12 -125q-40 -18 -83 -18t-79 26.5t-60 75.5l-32 65q-117 2 -178 88q-63 89 -47 252q15 166 98 255q77 83 200 83q122 0 185 -85q67 -88 51 -253q-14 -135 -68 -215.5t-136 -109.5l11 -23q19 -37 61 -39zM483.5 495q-36.5 60 -106.5 60t-117.5 -60.5
t-58 -170.5t25.5 -169t106.5 -59t117.5 59.5t58 169.5t-25.5 170z" />
    <glyph glyph-name="R" unicode="R" horiz-adv-x="583" 
d="M563 451q-8 -70 -46.5 -119t-106.5 -69l132 -263h-143l-104 253h-79l-23 -253h-110l61 651h218q106 0 157.5 -54.5t43.5 -145.5zM321 334q58 0 90.5 29t37.5 76q3 48 -20.5 77.5t-76.5 29.5h-108l-21 -212h98z" />
    <glyph glyph-name="S" unicode="S" horiz-adv-x="577" 
d="M443 469q-7 85 -99 85q-45 0 -72 -20t-30 -48.5t12 -44t48 -29.5l123 -56q63 -29 93.5 -71.5t24.5 -106.5q-8 -90 -73 -141t-176 -51q-98 0 -154 53q-63 60 -55 165h109q-5 -55 27.5 -80.5t81.5 -25.5t81.5 20t36 54t-11.5 51.5t-51 33.5l-113 52q-66 29 -98 68.5
t-26 108.5q8 80 70 128q63 50 163 50t149 -51.5t48 -143.5h-108z" />
    <glyph glyph-name="T" unicode="T" horiz-adv-x="482" 
d="M67 651h471l-10 -105h-181l-52 -546h-109l52 546h-181z" />
    <glyph glyph-name="U" unicode="U" horiz-adv-x="624" 
d="M256 651l-39 -404q-11 -113 64 -141q23 -8 51 -8q57 0 96.5 34.5t47.5 114.5l39 404h109l-38 -404q-12 -125 -81 -193t-182.5 -68t-169.5 68t-45 193l39 404h109z" />
    <glyph glyph-name="V" unicode="V" horiz-adv-x="550" 
d="M196 651l92 -498l190 498h115l-261 -651h-116l-137 651h117z" />
    <glyph glyph-name="W" unicode="W" horiz-adv-x="875" 
d="M203 651l80 -490l166 449h75l88 -451l183 492h124l-262 -651h-116l-74 362l-142 -362h-114l-131 651h123z" />
    <glyph glyph-name="X" unicode="X" horiz-adv-x="620" 
d="M589 0h-137l-132 228l-157 -228h-133l235 324l-175 327h134l124 -232l149 232h132l-227 -325z" />
    <glyph glyph-name="Y" unicode="Y" horiz-adv-x="549" 
d="M207 651l101 -256l157 256h130l-245 -382l-25 -269h-110l26 269l-164 382h130z" />
    <glyph glyph-name="Z" unicode="Z" horiz-adv-x="569" 
d="M75 105l348 434h-307l11 112h445l-11 -104l-346 -435h305l-9 -112h-445z" />
    <glyph glyph-name="bracketleft" unicode="[" horiz-adv-x="320" 
d="M158 796h227l-11 -110h-117l-68 -720h117l-11 -111h-226z" />
    <glyph glyph-name="backslash" unicode="\" horiz-adv-x="429" 
d="M91 747h111l311 -828h-113z" />
    <glyph glyph-name="bracketright" unicode="]" horiz-adv-x="307" 
d="M226 -145h-227l12 111h117l75 720h-117l11 110h228z" />
    <glyph glyph-name="asciicircum" unicode="^" horiz-adv-x="481" 
d="M38 215l217 390h89l143 -390h-121l-81 245l-127 -245h-120z" />
    <glyph glyph-name="underscore" unicode="_" horiz-adv-x="695" 
d="M45 -55h597l-10 -106h-597z" />
    <glyph glyph-name="grave" unicode="`" horiz-adv-x="324" 
d="M145 904l231 -132l-36 -76l-244 103z" />
    <glyph glyph-name="a" unicode="a" horiz-adv-x="528" 
d="M264 285q44 0 107 -18l5 46q1 7 1 13v11q0 38 -16.5 56t-54.5 18t-62 -18.5t-28 -50.5h-120q9 83 65.5 120.5t144.5 37.5q181 0 181 -163v-13q0 -7 -1 -15l-29 -309h-95q-2 16 -2 32t-1 33q-52 -79 -136 -79q-80 0 -123 41q-40 38 -40 99q0 80 62 122q53 37 142 37z
M364 189q-48 16 -80 16t-48.5 -4t-29.5 -12q-29 -18 -29 -47t19 -46t49 -17t48.5 8.5t33.5 23.5q31 31 37 78z" />
    <glyph glyph-name="b" unicode="b" horiz-adv-x="556" 
d="M233 427q50 73 131 73q75 0 122 -60q48 -61 48 -159q0 -105 -56 -193q-28 -44 -71 -73t-92 -29q-97 0 -127 98l-34 -84h-71l64 686h111zM219 277l-5 -55q-2 -18 -2 -29.5t6 -30t18 -33.5q25 -33 60 -33t58 16t38 42q30 50 30 110.5t-25.5 93t-66.5 32.5t-73 -30t-38 -83z
" />
    <glyph glyph-name="c" unicode="c" horiz-adv-x="478" 
d="M196.5 475q43.5 25 93.5 25t81.5 -16t52.5 -42q41 -51 41 -124h-112q-4 30 -20 51t-48 21q-58 0 -88 -63q-23 -48 -23 -109.5t24 -91.5t61.5 -30t57.5 21.5t24 56.5h110q-8 -82 -60 -132q-57 -56 -143 -56q-80 0 -131 60q-54 64 -54 163q0 116 61 200q29 41 72.5 66z" />
    <glyph glyph-name="d" unicode="d" horiz-adv-x="555" 
d="M375 77q-49 -91 -132 -91q-77 0 -127 61q-51 62 -51 163q0 108 56 194q64 96 163 96q82 0 117 -72l25 258h111l-65 -686h-90zM361.5 363q-25.5 27 -60 27t-58 -16.5t-37.5 -41.5q-29 -48 -29 -107.5t25.5 -94t67.5 -34.5q37 0 70 31q34 32 40 82l6 62q1 5 1 9v7
q0 49 -25.5 76z" />
    <glyph glyph-name="e" unicode="e" horiz-adv-x="478" 
d="M170 213q-1 -5 -1 -10v-10q0 -49 21.5 -79t57.5 -30q73 0 89 61h111q-16 -70 -72 -114q-56 -45 -129 -45q-79 0 -131 60q-53 61 -53 162q0 114 61 200q65 92 171 92q83 0 127 -60q41 -54 41 -140q0 -41 -11 -87h-282zM215 371q-28 -32 -37 -81h183q1 5 1 10v17t-3.5 28.5
t-12.5 29.5q-19 28 -61 28t-70 -32z" />
    <glyph glyph-name="f" unicode="f" horiz-adv-x="331" 
d="M360 589q-25 9 -44.5 9t-36 -12.5t-19.5 -44.5l-5 -54h80l-8 -82h-80l-37 -405h-110l37 405h-64l8 82h64l6 55q7 75 51 116q38 36 97 36q43 0 91 -11z" />
    <glyph glyph-name="g" unicode="g" horiz-adv-x="526" 
d="M139 200q-42 42 -42 106q0 87 65 142q61 52 142 52q57 0 104 -28q12 57 54 93q40 35 92 35l-16 -117q-77 0 -85 -55q26 -39 26 -84t-18 -80.5t-47 -60.5q-62 -52 -143 -52q-41 0 -77 14q-40 -16 -40 -51q0 -40 63 -40h145q141 0 141 -103q0 -98 -91 -164
q-81 -59 -183 -59q-106 0 -169 46q-57 42 -57 109q0 71 64 103q18 9 37 12q-44 33 -44 77.5t24.5 70t54.5 34.5zM139.5 -31.5q-27.5 -19.5 -27.5 -53t33 -51.5t93 -18q57 0 102 28q53 31 53 81q0 15 -10 24t-29 9h-149q-38 0 -65.5 -19.5zM369 337q0 78 -77 78
q-41 0 -63.5 -29t-22.5 -68q0 -81 75 -81q44 0 66 30t22 70z" />
    <glyph glyph-name="h" unicode="h" horiz-adv-x="563" 
d="M231 410q53 90 144 90q79 0 117 -60q34 -54 26 -156l-26 -284h-110l26 284q5 53 -15 79.5t-59.5 26.5t-73 -35.5t-44.5 -109.5v-3l-23 -242h-110l64 686h111z" />
    <glyph glyph-name="i" unicode="i" horiz-adv-x="298" 
d="M139 488h109l-46 -488h-109zM139 643q4 32 23.5 51.5t51.5 19.5t47.5 -19.5t12.5 -52.5q-2 -32 -22 -51t-52 -19q-31 0 -47 19t-14 52z" />
    <glyph glyph-name="j" unicode="j" horiz-adv-x="303" 
d="M158 591q-16 19 -13.5 51.5t22.5 52t52 19.5t48 -19.5t12 -51.5q-2 -33 -21.5 -52t-51.5 -19t-48 19zM-76 -116q48 -29 87 -29t58 20t24 70l51 544h110l-52 -546q-11 -105 -54.5 -150t-113.5 -45q-58 0 -122 31z" />
    <glyph glyph-name="k" unicode="k" horiz-adv-x="518" 
d="M262 235l-51 -43l-18 -192h-110l64 686h111l-35 -367l185 168h149l-211 -180l175 -307h-133z" />
    <glyph glyph-name="l" unicode="l" 
d="M147 686h111l-65 -686h-110z" />
    <glyph glyph-name="m" unicode="m" horiz-adv-x="855" 
d="M511 396q52 104 159 104q78 0 116 -60q34 -54 26 -156l-26 -284h-111l26 284q5 53 -15 79.5t-62 26.5t-73 -41.5t-39 -129.5l-20 -219h-110l26 284q6 53 -14.5 79.5t-62.5 26.5t-76 -43t-42 -131l-20 -216h-110l46 487h96q1 -21 1.5 -41.5t1.5 -40.5q53 95 147 95
q55 0 88.5 -28t47.5 -76z" />
    <glyph glyph-name="n" unicode="n" horiz-adv-x="563" 
d="M228 405q53 95 147 95q79 0 117 -60q34 -54 26 -156l-26 -284h-110l26 284q6 53 -14.5 79.5t-62.5 26.5t-76 -43t-42 -131l-20 -216h-110l46 487h96z" />
    <glyph glyph-name="o" unicode="o" horiz-adv-x="511" 
d="M314 500q45 0 82.5 -15.5t63.5 -47.5q56 -68 44 -195q-11 -122 -80 -192q-64 -64 -157 -64q-94 0 -146 64q-56 68 -44 192q11 126 80 195q63 63 157 63zM378 356.5q-23 37.5 -69.5 37.5t-80 -37.5t-41.5 -113.5t16 -113.5t70 -37.5t79.5 37.5t41 113.5t-15.5 113.5z" />
    <glyph glyph-name="p" unicode="p" horiz-adv-x="550" 
d="M224 421q46 79 132 79q80 0 132 -68q55 -73 44 -189q-11 -117 -80 -189q-65 -68 -144.5 -68t-111.5 51l-26 -274h-110l69 724h90q3 -47 5 -66zM211 196l-1 -5q-2 -45 24 -70t62 -25q44 0 78 36q40 42 47 111t-19.5 108t-71.5 39t-75.5 -29t-35.5 -83z" />
    <glyph glyph-name="q" unicode="q" horiz-adv-x="551" 
d="M374 63q-37 -77 -117 -77q-85 0 -137 68q-55 73 -44 189t79 189q62 68 144 68q41 0 73.5 -21.5t49.5 -66.5l32 75h71l-53 -561q-4 -45 4 -57q13 -20 46 -32l-39 -89q-74 21 -101.5 65t-19.5 122zM375 360q-25 30 -69.5 30t-78.5 -39t-41 -108q-7 -68 25 -111
q28 -36 72 -36q37 0 68 26q31 28 35 74l8 80q6 54 -19 84z" />
    <glyph glyph-name="r" unicode="r" horiz-adv-x="377" 
d="M382 367q-20 5 -48 5q-106 0 -121 -159l-20 -213h-110l46 488h110l-9 -97q24 54 57.5 79.5t70.5 25.5q18 0 37 -7z" />
    <glyph glyph-name="s" unicode="s" horiz-adv-x="474" 
d="M420 458.5q42 -41.5 37 -104.5h-103q0 23 -17 37t-51 14t-54 -14.5t-22 -34.5q-4 -34 45 -50l102 -44q48 -19 73 -48.5t21.5 -67.5t-19.5 -65.5t-43 -48.5q-58 -46 -145 -46t-137 42.5t-43 120.5h102q-3 -35 18.5 -51t59.5 -16t60 16t24.5 37.5t-9.5 32.5t-39 21l-93 39
q-102 42 -92 134q6 63 59 100q55 38 139.5 38t126.5 -41.5z" />
    <glyph glyph-name="t" unicode="t" horiz-adv-x="357" 
d="M332 12q-61 -26 -96 -26t-60 9t-43 27q-39 40 -31 114l25 270h-60l8 81h60l12 127h110l-12 -127h117l-8 -81h-118l-24 -266q-6 -58 45 -58q26 0 67 16z" />
    <glyph glyph-name="u" unicode="u" horiz-adv-x="566" 
d="M386 86q-50 -95 -141 -95q-117 0 -144 100q-10 35 -5 86l30 311h109l-29 -298q-4 -47 14.5 -70t59 -23t77.5 39.5t45 119.5l22 232h110l-45 -488h-111z" />
    <glyph glyph-name="v" unicode="v" horiz-adv-x="468" 
d="M183 487l62 -366l133 366h126l-208 -487h-123l-116 487h126z" />
    <glyph glyph-name="w" unicode="w" horiz-adv-x="685" 
d="M171 487l54 -344l112 316h100l52 -319l120 347h110l-190 -487h-108l-53 287l-104 -287h-108l-99 487h114z" />
    <glyph glyph-name="x" unicode="x" horiz-adv-x="503" 
d="M488 0h-134l-92 153l-114 -153h-135l194 242l-148 246h136l90 -154l115 154h134l-193 -246z" />
    <glyph glyph-name="y" unicode="y" horiz-adv-x="456" 
d="M187 487l70 -347l123 347h112l-224 -574q-35 -88 -76 -126.5t-99 -38.5t-115 32l11 107q44 -32 91 -32q57 0 94 98l18 47l-130 487h125z" />
    <glyph glyph-name="z" unicode="z" horiz-adv-x="447" 
d="M61 99l250 289h-224l10 99h345l-10 -99l-243 -289h217l-10 -99h-345z" />
    <glyph glyph-name="braceleft" unicode="{" horiz-adv-x="356" 
d="M337 -158q-119 0 -173 72q-50 64 -39 182l8 91q5 42 0 57t-22 15h-24l12 124h23q18 0 25 15t11 57l9 92q11 116 73 182q67 71 188 71l-11 -111q-66 0 -99.5 -34.5t-41.5 -109.5l-9 -96q-9 -92 -73 -126l1 -5q24 -14 38.5 -45.5t9.5 -79.5l-9 -96q-8 -74 19.5 -109
t93.5 -35z" />
    <glyph glyph-name="bar" unicode="|" 
d="M157 773h109l-85 -895h-110z" />
    <glyph glyph-name="braceright" unicode="}" horiz-adv-x="412" 
d="M210 323q-47 29 -49 100v13q0 5 1 13l9 96q2 16 2 23v13q-2 56 -29.5 82t-85.5 26l10 111q106 0 162 -57q50 -51 52 -149v-23q0 -12 -2 -25l-8 -91q-2 -20 -2 -37.5t5 -26t19 -8.5h23l-11 -124h-23q-18 0 -25 -15t-11 -57l-9 -92q-19 -182 -152 -235q-46 -18 -109 -18
l11 111q66 0 100 34.5t41 109.5l9 96q5 48 25 79.5t47 45.5v5z" />
    <glyph glyph-name="asciitilde" unicode="~" horiz-adv-x="518" 
d="M192 263q-33 0 -63 -61l-55 35q23 66 53.5 104.5t76.5 38.5q31 0 78 -21q74 -33 97 -33q37 0 63 56l56 -42q-49 -129 -139 -129q-33 0 -89 28l-48 18q-16 6 -30 6z" />
    <glyph glyph-name="sterling" unicode="&#xa3;" horiz-adv-x="545" 
d="M31 111h28q34 0 48.5 21t19.5 65l8 85h-74l7 82h74l8 81q11 109 67 164t135 55q159 0 163 -177h-108q-2 32 -17.5 49.5t-46 17.5t-54.5 -26.5t-29 -82.5l-8 -81h153l-7 -82h-153l-7 -76q-8 -67 -42 -95h119q45 0 65.5 18t28.5 58h121q-16 -139 -129 -175q-40 -12 -95 -12
h-286z" />
    <glyph glyph-name="dieresis" unicode="&#xa8;" horiz-adv-x="349" 
d="M115.5 788q-16.5 19 -14 48.5t22.5 48.5t49 19t45 -19t13.5 -48.5t-23 -48.5t-48.5 -19t-44.5 19zM278 837q2 29 22.5 48.5t49 19.5t44.5 -19.5t13.5 -48.5t-22 -48t-48 -19t-45.5 19t-14 48z" />
    <glyph glyph-name="acute" unicode="&#xb4;" horiz-adv-x="324" 
d="M377 799l-264 -103l-20 76l256 132z" />
    <glyph glyph-name="Agrave" unicode="&#xc0;" horiz-adv-x="568" 
d="M280 651h138l131 -651h-117l-27 138h-216l-54 -138h-115zM271 904l231 -132l-36 -76l-245 103zM226 230h161l-54 277z" />
    <glyph glyph-name="Aacute" unicode="&#xc1;" horiz-adv-x="568" 
d="M280 651h138l131 -651h-117l-27 138h-216l-54 -138h-115zM502 799l-264 -103l-19 76l256 132zM226 230h161l-54 277z" />
    <glyph glyph-name="Acircumflex" unicode="&#xc2;" horiz-adv-x="568" 
d="M280 651h138l131 -651h-117l-27 138h-216l-54 -138h-115zM548 756l-76 -61l-111 100l-130 -100l-63 61l205 161zM226 230h161l-54 277z" />
    <glyph glyph-name="Atilde" unicode="&#xc3;" horiz-adv-x="568" 
d="M280 651h138l131 -651h-117l-27 138h-216l-54 -138h-115zM302 782q-33 0 -61 -50l-40 29q17 62 46.5 96t64.5 34q22 0 63 -23q20 -13 31.5 -19t23.5 -6q29 0 52 48l42 -34q-21 -82 -74 -115q-15 -10 -30 -10q-26 0 -58.5 20t-41.5 25t-18 5zM226 230h161l-54 277z" />
    <glyph glyph-name="Adieresis" unicode="&#xc4;" horiz-adv-x="568" 
d="M280 651h138l131 -651h-117l-27 138h-216l-54 -138h-115zM226 230h161l-54 277zM221.5 769q-16.5 19 -14 48.5t22.5 49t49 19.5t45 -19.5t13.5 -49t-23 -48.5t-48.5 -19t-44.5 19zM384 818q2 29 22.5 49t49 20t44.5 -20t13.5 -49t-22 -48t-48 -19t-45.5 19t-14 48z" />
    <glyph glyph-name="Egrave" unicode="&#xc8;" horiz-adv-x="531" 
d="M143 651h379l-10 -105h-269l-16 -167h252l-10 -106h-252l-16 -167h269l-9 -106h-379zM256 904l231 -132l-36 -76l-244 103z" />
    <glyph glyph-name="Eacute" unicode="&#xc9;" horiz-adv-x="531" 
d="M82 0h379l9 106h-269l16 167h252l10 106h-252l16 167h269l10 105h-379zM488 799l-264 -103l-20 76l256 132z" />
    <glyph glyph-name="Ecircumflex" unicode="&#xca;" horiz-adv-x="531" 
d="M153 651h379l-11 -105h-269l-15 -167h252l-11 -106h-252l-15 -167h269l-9 -106h-379zM543 756l-77 -61l-110 100l-130 -100l-63 61l204 161z" />
    <glyph glyph-name="Edieresis" unicode="&#xcb;" horiz-adv-x="531" 
d="M143 651h379l-10 -105h-269l-16 -167h252l-10 -106h-252l-16 -167h269l-9 -106h-379zM208.5 769q-16.5 19 -14 48.5t22.5 49t49 19.5t45 -19.5t13.5 -49t-23 -48.5t-48.5 -19t-44.5 19zM371 818q2 29 22.5 49t49 20t45 -20t12.5 -49q-2 -29 -21.5 -48t-48 -19t-45.5 19
t-14 48z" />
    <glyph glyph-name="Igrave" unicode="&#xcc;" 
d="M144 651h110l-61 -651h-110zM121 904l231 -132l-36 -76l-244 103z" />
    <glyph glyph-name="Iacute" unicode="&#xcd;" 
d="M83 0h110l61 651h-110zM353 799l-264 -103l-19 76l255 132z" />
    <glyph glyph-name="Icircumflex" unicode="&#xce;" 
d="M144 651h110l-61 -651h-110zM400 756l-77 -61l-110 100l-130 -100l-63 61l204 161z" />
    <glyph glyph-name="Idieresis" unicode="&#xcf;" 
d="M148 651h110l-61 -651h-110zM67 817q2 30 21.5 49.5t48.5 19.5t45.5 -19.5t13.5 -48.5q-2 -30 -22.5 -49t-49.5 -19q-28 0 -44.5 19t-12.5 48zM243 818q2 29 22.5 49t48.5 20q29 0 45 -20t13 -49q-2 -29 -22 -48t-48 -19q-29 0 -45.5 19t-13.5 48z" />
    <glyph glyph-name="Ntilde" unicode="&#xd1;" horiz-adv-x="651" 
d="M142 651l-61 -651h110l44 472l220 -472h111l61 651h-110l-43 -456l-212 456h-120zM340 782q-32 0 -61 -50l-40 29q17 62 46.5 96t64.5 34q22 0 63 -23q38 -25 55 -25q29 0 52 48l42 -34q-22 -84 -74 -115q-15 -10 -30.5 -10t-30.5 7t-37.5 20.5t-31.5 18t-18 4.5z" />
    <glyph glyph-name="Ograve" unicode="&#xd2;" horiz-adv-x="618" 
d="M387 664q122 0 185 -85q67 -88 51 -253q-15 -166 -99 -256q-78 -84 -201 -84q-121 0 -185 86q-65 88 -49 254q15 166 98 255q77 83 200 83zM483.5 495q-36.5 60 -106.5 60t-117.5 -60.5t-58 -170.5t25.5 -169t106.5 -59t117.5 59.5t58 169.5t-25.5 170zM307 904l231 -132
l-36 -76l-244 103z" />
    <glyph glyph-name="Oacute" unicode="&#xd3;" horiz-adv-x="618" 
d="M379 664q-189 0 -265 -188q-25 -64 -33 -149t5 -149t44 -106q64 -86 185 -86q123 0 201 84q84 90 99 256q16 165 -51 253q-63 85 -185 85zM251.5 494.5q47.5 60.5 117.5 60.5t106.5 -60t25.5 -170t-58 -169.5t-117.5 -59.5t-106.5 59t-25.5 169t58 170.5zM530 799
l-264 -103l-19 76l256 132z" />
    <glyph glyph-name="Ocircumflex" unicode="&#xd4;" horiz-adv-x="618" 
d="M387 664q122 0 185 -85q67 -88 51 -253q-15 -166 -99 -256q-78 -84 -201 -84q-121 0 -185 86q-65 88 -49 254q15 166 98 255q77 83 200 83zM483.5 495q-36.5 60 -106.5 60t-117.5 -60.5t-58 -170.5t25.5 -169t106.5 -59t117.5 59.5t58 169.5t-25.5 170zM586 756l-77 -61
l-110 100l-131 -100l-63 61l205 161z" />
    <glyph glyph-name="Otilde" unicode="&#xd5;" horiz-adv-x="618" 
d="M386 664q-59 0 -109.5 -20.5t-89.5 -62.5q-83 -89 -98 -255q-16 -164 49 -254q62 -86 185 -86t201 84q84 90 99 256q16 165 -51 253q-63 85 -186 85zM259.5 495q46.5 60 117 60t107 -60t25.5 -170t-58 -169.5t-118 -59.5t-106 59t-24.5 169.5t57 170.5zM339 782
q-32 0 -60 -50l-41 29q17 62 46.5 96t64.5 34q22 0 53 -18t42 -24t23 -6q29 0 52 48l42 -34q-22 -84 -73 -115q-16 -10 -32 -10q-26 0 -69 28q-37 22 -48 22z" />
    <glyph glyph-name="Odieresis" unicode="&#xd6;" horiz-adv-x="618" 
d="M387 664q122 0 185 -85q67 -88 51 -253q-15 -166 -99 -256q-78 -84 -201 -84q-121 0 -185 86q-65 88 -49 254q15 166 98 255q77 83 200 83zM483.5 495q-36.5 60 -106.5 60t-117.5 -60.5t-58 -170.5t25.5 -169t106.5 -59t117.5 59.5t58 169.5t-25.5 170zM260.5 769
q-16.5 19 -14 48.5t22.5 49t49 19.5t45 -19.5t13.5 -49t-23 -48.5t-48.5 -19t-44.5 19zM423 818q2 29 22.5 49t49 20t45 -20t12.5 -49q-2 -29 -21.5 -48t-48 -19t-45.5 19t-14 48z" />
    <glyph glyph-name="Ugrave" unicode="&#xd9;" horiz-adv-x="624" 
d="M256 651l-39 -404q-11 -113 64 -141q23 -8 51 -8q57 0 96.5 34.5t47.5 114.5l39 404h109l-38 -404q-12 -125 -81 -193t-182.5 -68t-169.5 68t-45 193l39 404h109zM306 904l231 -132l-36 -76l-244 103z" />
    <glyph glyph-name="Uacute" unicode="&#xda;" horiz-adv-x="624" 
d="M147 651l-39 -404q-11 -125 45 -193t169.5 -68t182.5 68t81 193l38 404h-109l-39 -404q-8 -80 -47.5 -114.5t-96.5 -34.5q-92 0 -112 81q-7 28 -3 68l39 404h-109zM537 799l-264 -103l-19 76l256 132z" />
    <glyph glyph-name="Ucircumflex" unicode="&#xdb;" horiz-adv-x="624" 
d="M256 651l-39 -404q-11 -113 64 -141q23 -8 51 -8q57 0 96.5 34.5t47.5 114.5l39 404h109l-38 -404q-12 -125 -81 -193t-182.5 -68t-169.5 68t-45 193l39 404h109zM586 756l-77 -61l-110 100l-130 -100l-63 61l204 161z" />
    <glyph glyph-name="Udieresis" unicode="&#xdc;" horiz-adv-x="624" 
d="M256 651l-39 -404q-11 -113 64 -141q23 -8 51 -8q57 0 96.5 34.5t47.5 114.5l39 404h109l-38 -404q-12 -125 -81 -193t-182.5 -68t-169.5 68t-45 193l39 404h109zM261.5 769q-16.5 19 -14 48.5t22.5 49t49 19.5t45.5 -19.5t14.5 -49.5q-4 -29 -24 -48t-48.5 -19t-45 19z
M425 818q2 29 22 49t48.5 20t45 -20t14 -49t-22.5 -48t-48.5 -19t-45 19t-13.5 48z" />
    <glyph glyph-name="agrave" unicode="&#xe0;" horiz-adv-x="529" 
d="M260 285q54 0 117 -18l5 46q5 51 -10.5 74.5t-57 23.5t-65 -18.5t-27.5 -50.5h-120q8 83 64.5 120.5t148 37.5t139 -46.5t38.5 -144.5l-29 -309h-96q-1 16 -1 32t-1 33q-52 -79 -136 -79q-86 0 -129 47q-40 44 -34 111.5t57.5 104t136.5 36.5zM244 767l230 -132l-36 -76
l-244 103zM370 189q-48 16 -90 16q-91 0 -97 -62q-2 -26 16.5 -45t50 -19t50 8.5t33.5 23.5q31 31 37 78z" />
    <glyph glyph-name="aacute" unicode="&#xe1;" horiz-adv-x="529" 
d="M260 285q54 0 117 -18l5 46q5 51 -10.5 74.5t-57 23.5t-65 -18.5t-27.5 -50.5h-120q8 83 64.5 120.5t148 37.5t139 -46.5t38.5 -144.5l-29 -309h-96q-1 16 -1 32t-1 33q-52 -79 -136 -79q-86 0 -129 47q-40 44 -34 111.5t57.5 104t136.5 36.5zM475 662l-264 -103l-19 76
l256 132zM370 189q-48 16 -90 16q-91 0 -97 -62q-2 -26 16.5 -45t50 -19t50 8.5t33.5 23.5q31 31 37 78z" />
    <glyph glyph-name="acircumflex" unicode="&#xe2;" horiz-adv-x="529" 
d="M260 285q54 0 117 -18l5 46q5 51 -10.5 74.5t-57 23.5t-65 -18.5t-27.5 -50.5h-120q8 83 64.5 120.5t148 37.5t139 -46.5t38.5 -144.5l-29 -309h-96q-1 16 -1 32t-1 33q-52 -79 -136 -79q-86 0 -129 47q-40 44 -34 111.5t57.5 104t136.5 36.5zM522 619l-76 -61l-111 100
l-130 -100l-63 61l205 161zM370 189q-48 16 -90 16q-91 0 -97 -62q-2 -26 16.5 -45t50 -19t50 8.5t33.5 23.5q31 31 37 78z" />
    <glyph glyph-name="atilde" unicode="&#xe3;" horiz-adv-x="529" 
d="M260 285q54 0 117 -18l5 46q5 51 -10.5 74.5t-57 23.5t-65 -18.5t-27.5 -50.5h-120q8 83 64.5 120.5t148 37.5t139 -46.5t38.5 -144.5l-29 -309h-96q-1 16 -1 32t-1 33q-52 -79 -136 -79q-86 0 -129 47q-40 44 -34 111.5t57.5 104t136.5 36.5zM276 645q-33 0 -61 -50
l-40 29q17 63 46.5 97t64.5 34q24 0 53.5 -18.5t41 -24.5t23.5 -6q29 0 52 49l42 -34q-22 -83 -74 -117q-15 -9 -31 -9q-22 0 -56 20t-43 25t-18 5zM370 189q-48 16 -90 16q-91 0 -97 -62q-2 -26 16.5 -45t50 -19t50 8.5t33.5 23.5q31 31 37 78z" />
    <glyph glyph-name="adieresis" unicode="&#xe4;" horiz-adv-x="529" 
d="M260 285q54 0 117 -18l5 46q5 51 -10.5 74.5t-57 23.5t-65 -18.5t-27.5 -50.5h-120q8 83 64.5 120.5t148 37.5t139 -46.5t38.5 -144.5l-29 -309h-96q-1 16 -1 32t-1 33q-52 -79 -136 -79q-86 0 -129 47q-40 44 -34 111.5t57.5 104t136.5 36.5zM370 189q-48 16 -90 16
q-91 0 -97 -62q-2 -26 16.5 -45t50 -19t50 8.5t33.5 23.5q31 31 37 78zM198 632.5q-16 18.5 -13.5 48t22.5 49t48 19.5t45 -19.5t14.5 -49t-23.5 -48t-49 -18.5t-44 18.5zM361 681q2 29 22.5 49t49 20t44 -20t13 -49t-21.5 -47.5t-47.5 -18.5t-45.5 18.5t-14 47.5z" />
    <glyph glyph-name="egrave" unicode="&#xe8;" horiz-adv-x="478" 
d="M182 213q-5 -57 16.5 -93t69.5 -36q29 0 51 15t30 46h111q-16 -70 -72 -114q-56 -45 -129 -45q-86 0 -139 70q-55 74 -43 187q12 119 78 189q64 68 152 68q91 0 135 -72q51 -82 22 -215h-282zM223 778l231 -132l-36 -77l-244 104zM298 403q-43 0 -71 -32t-37 -81h183
q7 77 -35 104q-16 9 -40 9z" />
    <glyph glyph-name="eacute" unicode="&#xe9;" horiz-adv-x="478" 
d="M464 213q5 22 9 52q9 99 -31 163q-44 72 -135 72q-88 0 -152 -68q-66 -70 -78 -189q-12 -113 43 -187q53 -70 139 -70q73 0 129 45q56 44 72 114h-111q-8 -31 -30 -46t-51 -15q-48 0 -69.5 36t-16.5 93h282zM454 673l-264 -104l-19 77l256 132zM373 290h-183q9 49 37 81
t72 32t61.5 -32.5t12.5 -80.5z" />
    <glyph glyph-name="ecircumflex" unicode="&#xea;" horiz-adv-x="478" 
d="M274 84q64 0 82 61h110q-16 -69 -71 -114q-56 -45 -130 -45q-86 0 -139 70q-55 74 -43 187q12 119 78 189q64 68 152 68q92 0 136 -72q50 -80 21 -215h-282q-5 -57 16.5 -93t69.5 -36zM506 629l-77 -61l-110 101l-130 -101l-63 61l204 162zM305 403q-44 0 -72 -32
t-37 -81h183q7 78 -35 104q-15 9 -39 9z" />
    <glyph glyph-name="edieresis" unicode="&#xeb;" horiz-adv-x="478" 
d="M182 213q-5 -57 16.5 -93t69.5 -36q29 0 51 15t30 46h111q-16 -70 -72 -114q-56 -45 -129 -45q-86 0 -139 70q-55 74 -43 187q12 119 78 189q64 68 152 68q91 0 135 -72q51 -82 22 -215h-282zM298 403q-43 0 -71 -32t-37 -81h183q7 77 -35 104q-16 9 -40 9zM175.5 632.5
q-16.5 18.5 -14 48t22.5 49t48.5 19.5t45 -19.5t14 -49t-23.5 -48t-48.5 -18.5t-44 18.5zM338 681q2 29 22.5 49t49 20t44 -20t13 -49t-21.5 -47.5t-47.5 -18.5t-45.5 18.5t-14 47.5z" />
    <glyph glyph-name="igrave" unicode="&#xec;" horiz-adv-x="298" 
d="M139 488h109l-46 -488h-109zM118 767l231 -132l-36 -76l-244 103z" />
    <glyph glyph-name="iacute" unicode="&#xed;" horiz-adv-x="298" 
d="M93 0h109l46 488h-109zM349 662l-264 -103l-19 76l256 132z" />
    <glyph glyph-name="icircumflex" unicode="&#xee;" horiz-adv-x="298" 
d="M139 488h109l-46 -488h-109zM395 619l-76 -61l-111 100l-130 -100l-63 61l205 161z" />
    <glyph glyph-name="idieresis" unicode="&#xef;" horiz-adv-x="298" 
d="M141 488h109l-46 -488h-109zM73 632.5q-16 18.5 -13.5 48t22.5 49t49 19.5t45 -19.5t13.5 -49t-23 -48t-49 -18.5t-44.5 18.5zM236 681q2 29 22.5 49t49 20t44.5 -20t13.5 -49t-22 -47.5t-48 -18.5t-45.5 18.5t-14 47.5z" />
    <glyph glyph-name="ntilde" unicode="&#xf1;" horiz-adv-x="563" 
d="M375 500q-94 0 -147 -95l-4 82h-95l-46 -487h110l20 216q8 88 42 131t76 43t62 -26.5t15 -79.5l-26 -284h110l26 284q13 155 -73 200q-29 16 -70 16zM285 645q-32 0 -60 -50l-41 29q17 63 46.5 97t64.5 34q24 0 54 -18.5t41.5 -24.5t22.5 -6q29 0 52 49l42 -34
q-22 -85 -73 -117q-16 -9 -31.5 -9t-30.5 7t-37 20q-37 23 -50 23z" />
    <glyph glyph-name="ograve" unicode="&#xf2;" horiz-adv-x="511" 
d="M314 500q45 0 82.5 -15.5t63.5 -47.5q56 -68 44 -195q-11 -122 -81 -192q-64 -64 -156 -64q-95 0 -147 64q-55 69 -43 192q11 126 80 195q63 63 157 63zM378 356.5q-23 37.5 -69.5 37.5t-80 -37.5t-41.5 -113.5t16 -113.5t70 -37.5t79.5 37.5t41 113.5t-15.5 113.5z
M238 767l231 -132l-36 -76l-244 103z" />
    <glyph glyph-name="oacute" unicode="&#xf3;" horiz-adv-x="511" 
d="M314 500q-44 0 -84.5 -15.5t-72.5 -47.5q-69 -69 -80 -195q-12 -123 43 -192q52 -64 147 -64q92 0 156 64q70 70 81 192q12 127 -44 195q-51 63 -146 63zM228.5 356.5q33.5 37.5 80 37.5t69.5 -37.5t15.5 -113.5t-41 -113.5t-79.5 -37.5t-70 37.5t-16 113.5t41.5 113.5z
M470 662l-264 -103l-20 76l256 132z" />
    <glyph glyph-name="ocircumflex" unicode="&#xf4;" horiz-adv-x="511" 
d="M314 500q45 0 82.5 -15.5t63.5 -47.5q56 -68 44 -195q-11 -122 -81 -192q-64 -64 -156 -64q-95 0 -147 64q-55 69 -43 192q11 126 80 195q63 63 157 63zM378 356.5q-23 37.5 -69.5 37.5t-80 -37.5t-41.5 -113.5t16 -113.5t70 -37.5t79.5 37.5t41 113.5t-15.5 113.5z
M516 619l-77 -61l-110 100l-130 -100l-63 61l204 161z" />
    <glyph glyph-name="otilde" unicode="&#xf5;" horiz-adv-x="511" 
d="M314 500q-44 0 -84.5 -15.5t-72.5 -47.5q-69 -69 -80 -195q-12 -123 43 -192q52 -64 147 -64q93 0 157 64q69 70 80 192q12 127 -44 195q-51 63 -146 63zM228.5 356.5q33.5 37.5 80 37.5t69.5 -37.5t15.5 -113.5t-41 -113.5t-79.5 -37.5t-70 37.5t-16 113.5t41.5 113.5z
M269 645q-32 0 -60 -50l-41 29q17 63 46.5 97t64.5 34q24 0 54 -18.5t41.5 -24.5t22.5 -6q29 0 52 49l42 -34q-22 -85 -73 -117q-16 -9 -31.5 -9t-30.5 7t-37 20q-37 23 -50 23z" />
    <glyph glyph-name="odieresis" unicode="&#xf6;" horiz-adv-x="511" 
d="M314 500q45 0 82.5 -15.5t63.5 -47.5q56 -68 44 -195q-11 -122 -80 -192q-64 -64 -157 -64q-95 0 -147 64q-55 69 -43 192q11 126 80 195q63 63 157 63zM378 356.5q-23 37.5 -69.5 37.5t-80 -37.5t-41.5 -113.5t16 -113.5t70 -37.5t79.5 37.5t41 113.5t-15.5 113.5z
M191.5 632.5q-16.5 18.5 -14 48t22.5 49t49 19.5t45 -19.5t13.5 -49t-22.5 -48t-48.5 -18.5t-45 18.5zM355 681q2 29 22 49t48.5 20t45 -20t14 -49t-22.5 -47.5t-48.5 -18.5t-45.5 18.5t-13 47.5z" />
    <glyph glyph-name="ugrave" unicode="&#xf9;" horiz-adv-x="566" 
d="M386 86q-50 -95 -141 -95q-117 0 -144 100q-10 35 -5 86l30 311h109l-29 -298q-4 -47 14.5 -70t59 -23t77.5 39.5t45 119.5l22 232h110l-45 -488h-111zM259 785l231 -131l-36 -77l-244 103z" />
    <glyph glyph-name="uacute" unicode="&#xfa;" horiz-adv-x="566" 
d="M249 -9q91 0 141 95l-8 -86h111l45 488h-110l-22 -232q-8 -80 -45 -119.5t-78 -39.5q-81 0 -73 93l29 298h-109l-30 -311q-9 -95 35 -143q38 -43 114 -43zM495 680l-264 -103l-20 77l256 131z" />
    <glyph glyph-name="ucircumflex" unicode="&#xfb;" horiz-adv-x="566" 
d="M386 86q-50 -95 -141 -95q-117 0 -144 100q-10 35 -5 86l30 311h109l-29 -298q-4 -47 14.5 -70t59 -23t77.5 39.5t45 119.5l22 232h110l-45 -488h-111zM537 637l-77 -61l-110 100l-130 -100l-63 61l204 162z" />
    <glyph glyph-name="udieresis" unicode="&#xfc;" horiz-adv-x="566" 
d="M386 86q-50 -95 -141 -95q-117 0 -144 100q-10 35 -5 86l30 311h109l-29 -298q-4 -47 14.5 -70t59 -23t77.5 39.5t45 119.5l22 232h110l-45 -488h-111zM210.5 632.5q-16.5 18.5 -14 48t22.5 49t49 19.5t45.5 -19.5t14.5 -49.5q-4 -29 -24 -47.5t-48.5 -18.5t-45 18.5z
M374 681q2 29 22.5 49t49 20t44.5 -20t13.5 -49t-22.5 -47.5t-48.5 -18.5t-45 18.5t-13.5 47.5z" />
    <glyph glyph-name="dotlessi" unicode="&#x131;" 
d="M129 488h110l-46 -488h-110z" />
    <glyph glyph-name="apostrophe" unicode="&#x2bc;" horiz-adv-x="218" 
d="M122.5 538q-16.5 18 -14 48t26 51.5t61 21.5t58 -32t15.5 -78q-4 -46 -37 -95q-34 -48 -84 -74l-76 46q74 41 91 88q-24 6 -40.5 24z" />
    <glyph glyph-name="circumflex" unicode="&#x2c6;" horiz-adv-x="423" 
d="M474 756l-77 -61l-110 100l-131 -100l-63 61l205 161z" />
    <glyph glyph-name="tilde" unicode="&#x2dc;" horiz-adv-x="358" 
d="M193 782q-33 0 -61 -50l-40 29q17 62 46.5 96t64.5 34q22 0 63 -23q38 -25 55 -25q29 0 52 48l42 -34q-21 -82 -74 -115q-15 -10 -30.5 -10t-30.5 7t-37.5 20.5t-31.5 18t-18 4.5z" />
    <glyph glyph-name="endash" unicode="&#x2013;" horiz-adv-x="476" 
d="M83 356h378l-11 -107h-377z" />
    <glyph glyph-name="emdash" unicode="&#x2014;" horiz-adv-x="695" 
d="M83 356h597l-10 -107h-597z" />
    <glyph glyph-name="quoteleft" unicode="&#x2018;" horiz-adv-x="249" 
d="M216 396.5q-23 -21.5 -60 -21.5t-57.5 32t-15.5 79.5t39 94t87 74.5l72 -48q-75 -37 -94 -88q25 -5 41.5 -22.5t13.5 -48t-26 -52z" />
    <glyph glyph-name="quoteright" unicode="&#x2019;" horiz-adv-x="249" 
d="M131 634q23 21 59.5 21t57.5 -32.5t16 -80.5t-40 -93.5t-86 -73.5l-71 47q74 39 93 89q-26 5 -42.5 23t-13 48.5t26.5 51.5z" />
    <glyph glyph-name="rupeesymbol" unicode="&#x20b9;" horiz-adv-x="546" 
d="M135 651h422l-6 -68h-163q48 -36 57 -93h97l-7 -69h-93q-14 -63 -60.5 -108t-135.5 -61l211 -252h-155l-206 246l6 69h64q127 0 156 106h-209l7 69h206q-6 42 -38.5 67.5t-95.5 25.5h-63z" />
    <glyph glyph-name="minus" unicode="&#x2212;" horiz-adv-x="457" 
d="M420 356l-10 -107h-316l10 107h316z" />
    <glyph glyph-name="zero.propold" horiz-adv-x="516" 
d="M327 586q97 0 148 -77q53 -80 39 -223q-14 -142 -81 -222q-64 -78 -162 -78q-97 0 -149 78q-54 81 -40 222q14 143 82 223q66 77 163 77zM392.5 430q-21.5 46 -75 46t-84.5 -46t-41 -144q-16 -190 89 -190q107 0 125 190q8 98 -13.5 144z" />
    <glyph glyph-name="one.propold" horiz-adv-x="323" 
d="M294 574l-54 -574h-111l41 428q-48 -23 -95 -25l11 118q66 9 126 53h82z" />
    <glyph glyph-name="two.propold" horiz-adv-x="537" 
d="M328 480q-91 0 -104 -79h-122q8 89 74 139q60 46 156 46q90 0 142 -52q51 -51 43.5 -125.5t-47.5 -115.5t-122 -63l-97 -26q-72 -21 -76 -69l-1 -24h319l-10 -111h-429l9 99q11 121 93 166q28 15 65 25l88 23q51 14 72.5 36t24.5 55t-17 54.5t-61 21.5z" />
    <glyph glyph-name="three.propold" horiz-adv-x="531" 
d="M75 399q37 187 236 187q94 0 146 -50t44 -127q-10 -99 -108 -142q53 -23 78 -71t20 -101.5t-25 -91t-52 -65.5q-68 -58 -170 -58q-97 0 -155 52q-64 58 -55 164h112q-2 -60 29 -86t81 -26t84.5 31.5t39.5 79.5t-24.5 80t-87.5 32h-60l9 96h57q50 0 81 24.5t36 68.5
q2 38 -21 63t-66 25t-73 -22.5t-39 -62.5h-117z" />
    <glyph glyph-name="four.propold" horiz-adv-x="539" 
d="M477 577l-40 -423h101l-9 -106h-102l-14 -156h-112l16 156h-297l9 92l340 437h108zM149 140h181l25 259z" />
    <glyph glyph-name="five.propold" horiz-adv-x="532" 
d="M235 318q48 13 91 13t79.5 -15.5t60.5 -43.5q49 -57 41 -156q-10 -103 -82 -169.5t-170 -66.5q-85 0 -139 55q-58 59 -48 159h110q-5 -51 20 -76.5t70 -25.5q78 0 116 74q11 22 13 50q5 55 -23.5 85.5t-93.5 30.5h-168l62 353h347l-12 -112h-246z" />
    <glyph glyph-name="six.propold" horiz-adv-x="549" 
d="M441 471q-4 83 -75 83q-77 0 -125 -85q-49 -87 -49 -228q35 159 178 159q83 0 130 -58q46 -58 38 -149q-10 -94 -74 -150q-65 -57 -159 -57q-110 0 -173 92q-61 92 -47 236q16 167 95 260q77 90 193 90q87 0 139 -53q50 -52 46 -140h-117zM334 300q-42 0 -73.5 -28
t-35.5 -74q-4 -43 22 -72q24 -28 67 -28t74 27.5t36 74t-21.5 73.5t-68.5 27z" />
    <glyph glyph-name="seven.propold" horiz-adv-x="450" 
d="M490 586l-11 -105l-325 -586h-134l347 585h-300l9 106h414z" />
    <glyph glyph-name="eight.propold" horiz-adv-x="585" 
d="M574 477q-5 -49 -39 -87t-91 -49l3 -2q66 -30 93 -65q31 -39 26 -90.5t-24.5 -85.5t-53.5 -59q-74 -53 -190 -53q-112 0 -176 54q-63 54 -55 136q7 61 49 98t102 45q-75 41 -96 109q-8 26 -5 58q8 83 72 130.5t167 47.5t164.5 -52.5t53.5 -134.5zM309 277
q-52 -3 -88 -28.5t-39 -60.5q-4 -40 34 -66q34 -24 98 -24t99.5 19t38 46.5t-11.5 44.5t-41 30zM241 510q-10 -13 -12 -33q-4 -38 53 -63l64 -29q42 0 76 24q34 25 37.5 62t-26.5 60t-81 23q-77 0 -111 -44z" />
    <glyph glyph-name="nine.propold" horiz-adv-x="551" 
d="M332 586q55 0 99 -30t71 -79q52 -97 39 -239q-16 -169 -92 -263q-76 -95 -187 -95q-90 0 -144 57q-55 59 -45 149h115q-2 -45 19.5 -69.5t60.5 -24.5t66.5 18t47.5 51q45 72 54 222q1 17 1 34q-26 -111 -113 -143q-27 -10 -62 -10t-69.5 15.5t-58.5 42.5q-51 59 -43 151
t74 153q66 60 167 60zM385 449q-24 31 -71.5 31t-76 -31t-33 -77.5t19 -77.5t70.5 -31t76.5 31.5t34 77.5t-19.5 77z" />
    </font>
</defs>
</svg>
